<?xml version="1.0" standalone="no"?>
<!DOCTYPE svg PUBLIC "-//W3C//DTD SVG 1.1//EN" "http://www.w3.org/Graphics/SVG/1.1/DTD/svg11.dtd">
<svg xmlns="http://www.w3.org/2000/svg">
<metadata>Generated by Fontastic.me</metadata>
<defs>
<font id="is-icons" horiz-adv-x="512">
<font-face font-family="is-icons" units-per-em="512" ascent="480" descent="-32"/>
<missing-glyph horiz-adv-x="512" />

<glyph glyph-name="info" unicode="&#105;" d="M256 0c-142 0-256 114-256 256 0 142 114 256 256 256 142 0 256-114 256-256 0-142-114-256-256-256z m0 497c-133 0-241-108-241-241 0-133 108-241 241-241 133 0 241 108 241 241 0 133-108 241-241 241z m-32-121c0 19 11 29 32 29 21 0 32-9 32-29 0-9-3-16-8-21-4-4-13-7-24-7-21 0-32 9-32 28z m61-256c0-6-5-10-11-10l-36 0c-6 0-11 4-11 10l0 190c0 6 5 11 11 11l36 0c6 0 11-5 11-11z"/>
<glyph glyph-name="krizek" unicode="&#120;" d="M297 256l63 63c4 5 4 11 0 15l-26 26c-4 4-10 4-15 0l-63-63-63 63c-5 4-11 4-15 0l-26-26c-4-4-4-10 0-15l63-63-63-63c-4-5-4-11 0-15l26-26c4-4 10-4 15 0l63 63 63-63c5-4 11-4 15 0l26 26c4 4 4 10 0 15z m-41-256c-142 0-256 114-256 256 0 142 114 256 256 256 142 0 256-114 256-256 0-142-114-256-256-256z m0 497c-133 0-241-108-241-241 0-133 108-241 241-241 133 0 241 108 241 241 0 133-108 241-241 241z"/>
<glyph glyph-name="otaznik" unicode="&#63;" d="M250 90c-11 0-20 3-26 9-6 6-9 15-9 26 0 11 3 20 9 26 6 6 15 9 27 9 11 0 20-3 26-9 6-6 9-15 9-26 0-11-3-20-9-26-7-6-15-9-27-9z m18 98l-38 0c-4 0-7 2-9 8l0 9c0 12 3 24 8 33 6 9 15 20 29 29 13 9 21 16 25 22 5 6 6 12 6 18 0 8-3 14-7 17-6 4-14 6-24 6-17 0-37-5-56-15-5-3-11-2-14 4l-13 27c-3 6-2 11 4 14 27 13 54 21 85 21 27 0 48-6 63-20 16-13 24-30 24-51 0-13-3-27-11-37-6-11-18-23-36-35-12-9-19-15-22-20-3-4-5-10-5-16l0-6c-1-3-3-8-9-8z m-12-188c-142 0-256 114-256 256 0 142 114 256 256 256 142 0 256-114 256-256 0-142-114-256-256-256z m0 497c-133 0-241-108-241-241 0-133 108-241 241-241 133 0 241 108 241 241 0 133-108 241-241 241z"/>
<glyph glyph-name="potvrzeni" unicode="&#111;" d="M369 312l-38 39c-1 1-3 1-4 1-2 0-3-1-5-1l-102-103-27 28c-3 3-8 3-11 0l-39-40c-1-1-1-3-1-4 0-2 1-3 1-5l71-70c1-2 3-2 4-2 2 0 3 0 5 2l144 144c5 3 5 8 2 11z m-113-312c-142 0-256 114-256 256 0 142 114 256 256 256 142 0 256-114 256-256 0-142-114-256-256-256z m0 497c-133 0-241-108-241-241 0-133 108-241 241-241 133 0 241 108 241 241 0 133-108 241-241 241z"/>
<glyph glyph-name="stare-aplikace" unicode="&#101;" d="M315 182l-23 26 9 9-9 16 26 5 1 12 14 8c0 6 0 10-2 13-3 14 3 24 6 36 9 35-1 53-16 56-15 3-29-15-29-15 0 6 3 13 3 13 18 9 15 18 15 18-13 13-105 13-119 0 0 0-1-9 17-18 0 0 4-9 3-13 0 0-14 18-29 15-15-3-25-21-16-56 3-12 9-22 6-36-3-13-2-50 12-77 13-28 36-54 36-54l0-4c0 0-17-8-14-17 0 0 14-8 45-8 32 0 46 8 46 8 3 11-14 17-14 17l0 4c2-1 18 18 32 42z m-12 161c10 12 27 17 30-3 4-19-11-46-11-46 0 0-12 13-25 12 0 0-5 1-5 3 0 0 0 22 11 34z m-94-37c-13 1-25-12-25-12 0 0-15 25-11 46 3 20 21 15 30 3m160-207l-12 22-14-13-12 6-18-31c5-1 9-1 12-1 24-3 48 1 65 6l-11 11z m-107-136c-142 0-256 114-256 256 0 142 114 256 256 256 142 0 256-114 256-256 0-142-114-256-256-256z m0 497c-133 0-241-108-241-241 0-133 108-241 241-241 133 0 241 108 241 241 0 133-108 241-241 241z"/>
<glyph glyph-name="tipy" unicode="&#102;" d="M256 0c-142 0-256 114-256 256 0 142 114 256 256 256 142 0 256-114 256-256 0-142-114-256-256-256z m0 497c-133 0-241-108-241-241 0-133 108-241 241-241 133 0 241 108 241 241 0 133-108 241-241 241z m96-143c2 1 2 4 0 6l-6 6c-1 1-4 1-6 0l-28-27c-2-2-2-5 0-6l6-6c1-2 4-2 6 0z m-101-2l10 0c3 0 4 2 4 5l0 39c0 3-1 5-4 5l-10 0c-3 0-4-2-4-5l0-39c0-3 3-5 4-5z m136-64c0 3-1 4-5 4l-39 0c-3 0-4-1-4-4l0-9c0-3 1-5 4-5l39 0c4 0 5 2 5 5z m-131 49c-38 0-68-30-68-66 0-15 5-29 12-39 11-15 17-36 17-59 1-1 1-1 4-1l67 0c1 0 3 1 4 3 0 24 8 45 18 61 8 11 11 23 11 37 3 34-27 64-65 64z m35-206c0 0-2 0 0 0l-68 0c-3 0-5-1-5-5l0-10c0-3 2-5 5-5l66 0c3 0 5 2 5 5l0 10c1 2-2 5-3 5z m0 29c0 0-2 0 0 0l-68 0c-3 0-5-2-5-5l0-10c0-3 2-5 5-5l66 0c3 0 5 2 5 5l0 10c1 3-2 5-3 5z m-122 128l-39 0c-4 0-5-2-5-5l0-9c0-3 1-4 5-4l39 0c3 0 4 1 4 4l0 9c0 3-1 5-4 5z m-6 67l28-28c2-2 5-2 6 0l6 6c2 1 2 4 0 6l-27 27c-1 1-4 1-6 0l-7-5c-2-1-2-4 0-6z"/>
<glyph glyph-name="vykricnik" unicode="&#33;" d="M256 0c-142 0-256 114-256 256 0 142 114 256 256 256 142 0 256-114 256-256 0-142-114-256-256-256z m0 497c-133 0-241-108-241-241 0-133 108-241 241-241 133 0 241 108 241 241 0 133-108 241-241 241z m-33-360c0 11 3 18 9 24 6 6 13 8 24 8 11 0 18-3 24-9 6-6 9-14 9-24 0-11-3-19-9-25-6-3-13-6-24-6-11 0-18 3-24 9-6 5-9 12-9 23z m51 65c6 0 9 3 9 9 2 34 9 158 9 165 0 8-7 11-10 11-2 0-47 0-50 0-3 0-11-3-11-11 0-7 6-129 9-165 0-6 3-9 9-9 0 0 34 0 35 0z"/>
<glyph glyph-name="key" unicode="&#103;" d="M479 282c-1 2-1 4-3 6-2 2-5 3-7 3l-202 0c-13 51-60 89-115 89-65 0-119-54-119-119 0-66 54-119 119-119 59 0 107 43 117 99l45 0 0-65 0 0c0-5 5-9 10-9 0 0 0 0 0 0l0 0 31 0 0 0c5 0 10 4 10 9l0 0 0 65 26 0 0-100 0 0c0-5 4-9 9-9 0 0 0 0 0 0l32 0c0 0 0 0 0 0 5 0 9 4 10 9l0 0 0 100 27 0 0 0c2 0 5 0 7 2 2 2 3 5 3 7l0 0 0 32 0 0z m-327-90c-37 0-68 30-68 68 0 38 31 68 68 68 38 0 68-30 68-68 0-38-30-68-68-68z"/>
<glyph glyph-name="clipboard" unicode="&#112;" d="M413 424l0 0c0 0 0 0 0 0 0 15-12 27-26 27-1 0-1 0-1 0l-74 0 0 18c0 4-4 8-9 8l0 0-94 0 0 0c0 0 0 0 0 0-5 0-8-4-8-8 0 0 0 0 0-1l0-17-76 0c0 0 0 0 0 0-14 0-26-12-26-27 0 0 0 0 0 0l0 0 0-362 0 0c0 0 0 0 0 0 0-15 12-27 26-27 1 0 1 0 2 0l0 0 258 0c1 0 1 0 2 0 14 0 26 12 26 27 0 0 0 0 0 0l1 0 0 362z m-50-338l-214 0 0 314 26 0 0-15c0-1 0-1 0-1 0-5 4-9 9-9 0 0 0 0 0 0l0 0 144 0c5 0 9 4 9 9 0 0 0 0 0 0l0 16 26 0 0-314z"/>
<glyph glyph-name="thumbnails" unicode="&#119;" d="M155 422l-54 0c-6 0-11-5-11-11l0-54c0-6 5-12 11-12l54 0c6 0 12 6 12 12l0 54c0 6-6 11-12 11z m128 0l-54 0c-6 0-11-5-11-11l0-54c0-6 5-12 11-12l54 0c6 0 11 6 11 12l0 54c0 6-5 11-11 11z m139-11c0 6-5 11-11 11l-54 0c-6 0-12-5-12-11l0-54c0 0 0 0 0 0 0-6 6-12 12-12l54 0c6 0 11 6 11 12l0 54z m-267-117l-54 0c-6 0-11-5-11-11l0-54c0-6 5-11 11-11l54 0c6 0 12 5 12 11l0 54c0 6-6 11-12 11z m128 0l-54 0c-6 0-11-5-11-11l0-54c0-6 5-11 11-11l54 0c6 0 11 5 11 11l0 54c0 6-5 11-11 11z m128 0l-54 0c-6 0-12-5-12-11l0-54c0 0 0 0 0 0 0-6 6-11 12-11l54 0c6 0 11 5 11 11l0 54c0 6-5 11-11 11z m-256-127l-54 0c-6 0-11-6-11-12l0-54c0-6 5-11 11-11l54 0c6 0 12 5 12 11l0 54c0 6-6 12-12 12z m128 0l-54 0c-6 0-11-6-11-12l0-54c0-6 5-11 11-11l54 0c6 0 11 5 11 11l0 54c0 6-5 12-11 12z m128 0l-54 0c-6 0-12-6-12-12l0-54c0-6 6-11 12-11l54 0c6 0 11 5 11 11l0 54c0 6-5 12-11 12z"/>
<glyph glyph-name="checkbox" unicode="&#70;" d="M471 387l-44 45c-1 1-4 2-6 2-2 0-4-1-6-2l-159-160-31 31c-3 3-9 3-12 0l-44-44c-2-2-2-4-2-6 0-2 0-4 2-6l81-80c1-2 3-3 6-3 0 0 0 0 0 0 0 0 0 0 0 0 2 0 4 1 6 3l209 209c3 3 3 8 0 11z m-102-150l0-108-226 0 0 226 159 0 51 51-234 0 0 0c0 0 0 0-1 0-14 0-25-12-26-26l0 0 0-276 0 0c1-14 12-26 26-26l0 0 276 0 0 0c14 0 25 12 26 26l0 0 0 185z"/>
<glyph glyph-name="telephone" unicode="&#72;" d="M435 152c-1 6-4 10-9 13l-74 43 0 0c-3 2-7 3-10 3-6 0-12-3-16-7l-22-21c-1-1-4-2-5-3 0 0-25 2-71 48-46 46-48 71-48 71 0 1 2 4 3 5l18 19c7 6 8 17 5 26l-41 76c-3 6-9 10-15 10-5 0-9-2-13-5l-50-50c-5-5-9-14-10-20 0-4-9-81 97-186 89-90 159-97 179-97 4 0 6 0 7 0 6 1 15 5 20 10l50 50c4 5 6 10 5 15z"/>
<glyph glyph-name="prohibited" unicode="&#73;" d="M256 448c-106 0-192-86-192-192 0-106 86-192 192-192 106 0 192 86 192 192 0 106-86 192-192 192z m0-333c-78 0-141 63-141 141 0 34 12 66 33 90l198-198c-24-21-56-33-90-33z m108 51l-198 198c24 21 56 33 90 33 78 0 141-63 141-141 0-34-12-66-33-90z"/>
<glyph glyph-name="paperclip" unicode="&#75;" d="M155 59c-14 0-32 5-50 23-24 24-27 47-25 62 2 17 11 34 27 50l150 151c43 42 71 26 83 13 16-15 26-42-14-82l-138-139-27 27 138 139c22 21 17 26 14 28-1 2-7 8-29-13l-150-151c-7-7-15-17-16-28-1-9 4-19 14-30 13-13 23-12 26-11 9 1 19 7 30 18 13 12 167 166 178 178 15 15 24 29 28 42 5 20-1 38-20 57-19 19-51 40-98-8l-165-165c-8-7-20-7-27 0-8 8-8 20 0 27l165 165c51 51 106 54 152 8 36-36 36-71 30-94-6-20-18-39-38-59-11-12-166-166-178-178-17-17-34-26-51-29-3 0-6-1-9-1z"/>
<glyph glyph-name="home" unicode="&#78;" d="M428 318l-167 129c-4 4-11 4-16 0l-161-129c-3-2-5-6-5-10l0-233c0-7 6-13 13-13l96 0c7 0 13 6 13 13l0 143 110 0 0-143c0-7 6-13 13-13l96 0c7 0 13 6 13 13l0 233c0 4-2 8-5 10z"/>
<glyph glyph-name="info-1" unicode="&#82;" d="M256 448c-106 0-192-86-192-192 0-106 86-192 192-192 106 0 192 86 192 192 0 106-86 192-192 192z m20-299c0-3-3-6-7-6l-26 0c-4 0-7 3-7 6l0 124c0 4 3 7 7 7l26 0c4 0 7-3 7-7z m-20 159c-13 0-23 10-23 23 0 13 10 23 23 23 13 0 23-10 23-23 0-13-10-23-23-23z"/>
<glyph glyph-name="shopping-bag" unicode="&#51;" d="M476 314c-1 10-9 18-19 18l-31 0c-33 60-97 102-170 102-73 0-137-42-170-102l-31 0c-10 0-18-8-19-18l-1 0 0-216c0-11 9-20 20-20l402 0c11 0 20 9 20 20l0 216z m-328 18c25 31 64 51 108 51 44 0 83-20 108-51z"/>
<glyph glyph-name="credit-card" unicode="&#56;" d="M445 378c0 7-6 13-13 13-1 0-1 0-1 0l-349 0c-1 0-1 0-2 0-7 0-13-6-13-13 0-1 0-1 0-2l0-36 378 0 0 37 0 0c0 0 0 1 0 1z m-378-244c0 0 0 0 0 0 0-7 6-13 14-13 0 0 0 0 1 0l0 0 350 0 0 0c7 0 13 6 13 13l0 0 0 155-378 0z"/>
<glyph glyph-name="print" unicode="&#34;" d="M463 332c0 5-4 9-9 9l-67 0 0 110c0 5-5 10-10 10l-242 0c-5 0-10-5-10-10l0-110-67 0c0 0 0 0 0 0-5 0-9-4-9-9l0 0 0-188c0-5 4-10 9-10l67 0 0 79 262 0 0-79 67 0c5 0 9 5 9 10l0 188z m-102-33l-210 0 0 127c0 5 4 9 9 9l192 0c5 0 9-4 9-9l0-127z m-209-238c0-5 4-10 9-10l190 0c5 0 9 5 9 10l0 126-208 0z"/>
<glyph glyph-name="share" unicode="&#40;" d="M375 316c-8 0-15-1-22-4l-156 90c0 2 0 3 0 4 0 34-27 61-60 61-33 0-60-27-60-61 0-33 27-60 60-60 13 0 25 4 35 12l145-84c-1-6-2-12-2-18 0-6 1-12 2-18l-144-84c-10 7-23 12-36 12-33 0-60-27-60-60 0-34 27-61 60-61 33 0 60 27 60 61 0 1 0 2 0 3l157 91c6-3 13-4 21-4 33 0 60 27 60 60 0 33-27 60-60 60z"/>
<glyph glyph-name="alert" unicode="&#47;" d="M467 95l0 0-1 2c0 0-1 1-1 2l-193 334c-3 5-9 9-16 9-8 0-14-4-17-11l0 0-191-331 0 0c-3-4-4-8-4-12 0-10 8-18 18-18l388 0c10 0 18 8 18 18 0 3 0 5-1 7z m-211 9c-15 0-26 12-26 27 0 14 11 26 26 26 15 0 26-12 26-26 0-15-11-27-26-27z m26 233l0-145 0 0c0 0 0 0 0 0 0-6-4-11-10-11 0 0 0 0 0 0l0 0-32 0c-6 0-10 5-10 11 0 0 0 0 0 0l0 0 0 144c0 0 0 1 0 1 0 5 4 10 9 10l0 0 33 0 0 0c6 0 10-4 10-10l0 0 0 0c0 0 0 0 0 0z"/>
<glyph glyph-name="cepice" unicode="&#57361;" d="M107 231l0-86 149-81 149 81 0 86-149-82z m149 217l-235-128 235-128 192 105 0-148 43 0 0 171z"/>
<glyph glyph-name="stech" unicode="&#57362;" d="M256 448c-106 0-192-86-192-192 0-106 86-192 192-192 18 0 32 14 32 32 0 8-3 16-8 21-5 6-8 13-8 22 0 17 14 32 32 32l37 0c59 0 107 47 107 106 0 95-86 171-192 171z m-117-192c-18 0-32 14-32 32 0 18 14 32 32 32 17 0 32-14 32-32 0-18-15-32-32-32z m64 85c-18 0-32 15-32 32 0 18 14 32 32 32 17 0 32-14 32-32 0-17-15-32-32-32z m106 0c-17 0-32 15-32 32 0 18 15 32 32 32 18 0 32-14 32-32 0-17-14-32-32-32z m64-85c-17 0-32 14-32 32 0 18 15 32 32 32 18 0 32-14 32-32 0-18-14-32-32-32z"/>
<glyph glyph-name="etech" unicode="&#57363;" d="M201 288l101 176c-15 3-30 5-46 5-51 0-98-18-134-48l77-135z m259 32c-19 63-67 112-128 135l-78-135z m5-21l-160 0 6-11 102-176c35 38 56 89 56 144 0 15-1 29-4 43z m-283-43l-83 144c-35-38-56-89-56-144 0-15 1-29 4-43l160 0c0 0-25 43-25 43z m-130-64c19-62 67-112 128-135l78 135z m241 0l-83-144c15-3 31-5 46-5 51 0 98 18 134 48l-77 135c0 0-20-34-20-34z"/>
<glyph glyph-name="diskuse" unicode="&#37;" d="M319 357c-10 11-22 21-36 29 0 0 0 0 0 0-4 3-9 5-14 7 0 1-1 1-2 1-4 2-8 4-12 6-2 0-3 1-5 1-3 2-7 3-11 4-3 1-5 2-8 2-3 1-6 2-8 2-6 1-12 2-18 3-5 0-10 1-15 1-1 0-2 0-3 0-4 0-7 0-11 0-2-1-4-1-6-1-4 0-8-1-12-1-2 0-3 0-5-1-5 0-10-2-15-3-2 0-3-1-5-1-3-1-7-2-10-3-2-1-4-2-6-3-3-1-6-2-9-3-2-1-4-2-6-3-2-1-5-3-7-4-2-1-4-2-6-4-3-1-5-3-7-4-2-1-4-3-6-4-2-2-4-3-6-5-2-2-4-3-5-5-2-2-4-3-6-5-2-2-3-3-5-5-2-2-4-4-5-6-2-2-3-4-4-5-2-3-4-5-5-7-1-2-2-4-4-6-1-2-2-4-4-7-1-2-2-4-2-5-2-3-3-6-4-9-1-1-1-3-2-5-1-3-2-6-3-10 0-1-1-3-1-4-1-5-2-10-3-15-6-55 22-107 69-139l-41-41 90 18c11-4 24-6 36-7 4-1 8-1 11-1 2 0 3 0 4 0 2 0 5 0 7 0 5 0 10 0 14 0 1 0 2 0 4 0 3 1 7 1 10 2 2 0 3 0 5 1 3 0 6 1 9 2 2 0 3 0 5 1 3 1 7 2 11 3 2 1 4 1 6 2 2 1 4 2 6 3 2 0 4 1 7 2 1 1 3 2 4 3 5 2 9 4 13 6 1 1 2 2 3 2 2 2 5 3 7 5 1 1 2 1 2 2 8 5 15 12 22 19 0 0 0 0 1 1 2 2 4 4 6 7 17 20 28 45 31 73 5 42-11 83-40 114z m193-72c-6 60-66 102-134 93-16-2-30-7-43-13 2-3 4-5 6-8 27-34 39-75 35-116-3-29-14-55-31-77 16-4 34-5 52-3 10 1 18 3 27 6l59-17-24 34c35 24 56 62 53 101z"/>
<glyph glyph-name="dril" unicode="&#59;" d="M262 445c-3 0-5-2-5-5l0-82c0-3 2-6 5-6 55 0 99-44 99-98 0-55-44-99-99-99-26 0-51 10-70 29-28 28-36 71-21 108l3 6 34-22c1 0 2 0 3 0 3 0 5 2 5 5 0 0 0 0 0 2l0 162c0 2-1 3-3 4 0 1-1 1-2 1-1 0-2 0-3 0l-147-73c-2 0-3-2-3-4 0-2 1-4 2-5l35-21-2-4c-40-75-26-166 34-225l0-1c37-35 84-55 135-55 106 0 192 86 192 192 0 105-86 191-192 191z"/>
<glyph glyph-name="e-volby" unicode="&#60;" d="M421 242l-330 0c-9 0-17-7-17-16l0-148c0-9 8-16 17-16l330 0c9 0 17 7 17 16l0 148c0 9-8 16-17 16z m-146 81l27 127c-1 0-2-1-3-1l-162-104c-1-1-2-2-3-3l127-28c6-1 12 3 14 9z m113 7c0 2-1 3-1 4l-72 111c-1 1-2 2-3 2l-19-88z m-207-71l32 0 7 54-87 19c1-1 1-1 1-2z m104 61c-2-6-5-10-9-13-5-3-11-4-16-3l-30 7-7-52 67 0 94 59c1 1 2 2 2 2l-95 29z"/>
<glyph glyph-name="externi-sluzby" unicode="&#62;" d="M435 269c-3 0-6-1-9-1-7 52-48 93-98 93-13 0-25-3-36-8-18 25-46 41-78 41-51 0-92-42-98-96-8 3-16 4-24 4-46 0-84-41-84-92 0-51 38-92 84-92 39 0 318 0 343 0 38 0 69 34 69 75 0 42-31 76-69 76z"/>
<glyph glyph-name="karty" unicode="&#64;" d="M369 232l-35 0c-18 0-41-15-41-32l0-21 116 0 0 21c0 17-23 32-40 32z m14 45c0 18-14 32-32 32-17 0-31-14-31-32 0-17 14-31 31-31 18 0 32 14 32 31z m49 107l-352 0c-17 0-30-14-30-31l0-211c0-17 13-31 30-31l352 0c17 0 30 14 30 31l0 211c0 17-13 31-30 31z m-238-193l-106 0c-5 0-8 3-8 8 0 5 3 8 8 8l106 0c4 0 8-3 8-8 0-5-4-8-8-8z m38 48l-144 0c-5 0-8 4-8 9 0 4 3 8 8 8l144 0c5 0 8-4 8-8 0-5-3-9-8-9z m196-59c0-16-15-30-31-30l-96 0c-16 0-27 14-27 30l0 136c0 16 11 29 27 29l97 0c16 0 30-13 30-29z"/>
<glyph glyph-name="lide" unicode="&#91;" d="M255 337c37 0 66 30 66 67 0 37-29 67-66 67-37 0-67-30-67-67 0-37 30-67 67-67z m94-71c-16 0-31-7-43-18-11-12-18-27-18-43 0-34 28-61 61-61 34 0 61 27 61 61 0 33-27 61-61 61z m23 29c-14 18-35 25-56 26-11-18-34-31-60-31-26 0-48 13-60 30l0 1 0 0c-39 0-76-23-76-92 0 0 0-117 0-136 0-19 17-33 30-33 4 0 20 0 43 0 1-3 3-5 5-8 8-7 17-11 28-11 14 0 28 7 39 18l1 1c45 0 87 0 93 0 14 0 31 14 31 33 0 4 0 15 0 28 31 16 52 47 52 84 0 43-30 79-70 90z m-120-224c-7-8-17-12-26-12-6 0-11 2-15 6-5 5-7 13-6 21 2 7 6 15 12 21l52 52c2-5 6-10 9-14l-50-50c-3-4-6-8-7-12 0-3 0-5 1-7 1-1 3-1 4-1 4 0 9 2 15 8l50 49c4-3 8-6 13-9z m97 56c-42 0-77 35-77 78 0 20 8 40 22 54 15 15 34 23 55 23 43 0 77-35 77-77 0-43-34-78-77-78z"/>
<glyph glyph-name="management" unicode="&#126;" d="M454 362c0 12-9 21-21 21-11 0-20-9-20-21 0-11 9-20 20-20 12 0 21 9 21 20z m-138-93c0-11 9-20 20-20 12 0 21 9 21 20 0 12-9 21-21 21-11 0-20-9-20-21z m-77-70c-11 0-20-9-20-20 0-12 9-21 20-21 12 0 21 9 21 21 0 11-9 20-21 20z m-97 18c-11 0-20-9-20-20 0-11 9-20 20-20 12 0 21 9 21 20 0 11-9 20-21 20z m317 159c2-4 3-9 3-14 0-15-13-28-29-28-5 0-10 1-14 4l-57-55c2-4 3-9 3-14 0-15-13-28-29-28-5 0-10 1-14 4l-56-54c1-4 2-8 2-12 0-16-13-29-29-29-14 0-26 11-28 25l-43 9c-5-9-14-16-26-16-5 0-9 2-13 4l-67-68c1-1 3-1 4-1l380 0c9 0 16 8 16 17l0 256c0 1 0 2 0 3z m-345-179c0 16 13 29 28 29 15 0 27-11 29-26l43-8c5 9 14 15 25 15 6 0 11-1 16-4l56 54c-2 3-3 8-3 12 0 16 12 29 28 29 5 0 10-1 14-4l58 55c-2 4-4 9-4 13 0 16 13 29 29 29 5 0 10-1 14-4l4 4c-1 1-3 1-5 1l-380 0c-9 0-16-7-16-16l0-256c0-2 0-3 0-4l67 68c-2 4-3 8-3 13z"/>
<glyph glyph-name="obchod" unicode="&#95;" d="M386 139c-23 0-41-18-41-40 0-23 18-41 41-41 22 0 40 18 40 41 0 22-18 40-40 40z m-237 0c-23 0-41-18-41-40 0-23 18-41 41-41 22 0 40 18 40 41 0 22-18 40-40 40z m285 249l-269 12-2 13c-3 19-21 36-40 37l-55 4c-5 1-10-3-10-8-1-6 3-10 8-10l55-4c11-1 22-11 24-22l28-167c1-3 2-6 3-8l-28-45c-6-9-7-18-3-26 4-7 12-12 23-12l262 0c5 0 9 5 9 10 0 5-4 9-9 9l-262 0c-5 0-7 1-7 2 0 1 0 3 2 7l27 43c4-1 8-1 12-1l213 15c20 1 24 7 27 27l12 104c1 12-4 20-20 20z"/>
<glyph glyph-name="podosnova" unicode="&#57373;" d="M266 184l138 0c5-7 14-11 23-11 17 0 31 14 31 31 0 18-14 31-31 31-9 0-18-4-23-10l-138 0 0 51 138 0c5-6 14-10 23-10 17 0 31 13 31 31 0 17-14 31-31 31-9 0-18-4-23-11l-138 0 0 71c0 11-9 21-20 21l-138 0c-5 6-14 10-23 10-17 0-31-14-31-31 0-17 14-31 31-31 9 0 18 4 23 10l117 0 0-41c-12-5-20-16-20-29 0-14 8-25 20-29l0-35c-12-4-20-15-20-29 0-13 8-24 20-29l0-38c-12-5-20-16-20-30 0-17 14-31 31-31 9 0 17 4 23 11l145 0c5-7 14-11 23-11 17 0 31 14 31 31 0 18-14 32-31 32-9 0-18-4-23-11l-138 0z"/>
<glyph glyph-name="posta" unicode="&#96;" d="M269 223l164 149c-2 1-4 1-6 1l-342 0c-3 0-5-1-7-1l162-149c8-7 21-7 29 0z m-202 135c-1-1-1-2-1-4l0-213c0-1 0-1 0-2l111 118z m264-101l114-122c1 2 1 4 1 6l0 213c0 2 0 4-1 6z m-51-47c-7-6-16-9-26-9-9 0-19 3-26 10l-38 34-113-121c2-1 5-2 8-2l342 0c2 0 4 1 6 1l-115 122z"/>
<glyph glyph-name="predmety" unicode="&#123;" d="M55 143l-8-25c-1-1-1-3-1-4 0 0 0-1-1-1 0-1 0-2 0-3 0 0 1-1 1-1 0-1 0-2 0-2 0-1 0-1 1-1 0-1 0-2 1-3 0 0 0 0 0 0 1-1 2-1 3-2 0 0 0 0 1 0 0 0 1 0 2-1 0 0 1 0 1 0 1 0 2 0 3 0 0 0 1 0 1 0 2 1 3 1 5 2l24 7c2 1 3 2 5 2 1 1 2 1 3 1 1 1 2 1 3 2 1 0 2 1 4 2 0 0 1 0 2 1 1 1 3 2 4 3 1 0 1 0 1 0 2 1 4 2 6 4 0 0 0 0 0 0 0 0 0 0 1 0l-48 48c-6-10-12-21-14-29z m93 276c-10 11-18 7-18-7l0-153 89 89z m145-145l-52-52 54-59c3-3 2-6-3-6l-76 0c-5 0-7 4-7 9l0 24-66-66c-3-3-8-7-13-10l0-1c0-14 10-26 25-26l298 0c14 0 18 8 8 18z m-161-138l78 79 20 20 51 51 39 39-51 50 12 12 51-51 25 26c11 11 11 27 0 38l-13 13c-5 5-12 7-18 7-7 0-14-2-19-7l-177-177-49-49c0-1-1-2-2-2l51-51c0 1 0 1 0 1 1 0 1 1 2 1z"/>
<glyph glyph-name="prijimacky" unicode="&#124;" d="M381 457l-250 0c-8 0-15-8-15-16l0-370c0-8 7-16 15-16l250 0c8 0 15 8 15 16l0 370c0 8-7 16-15 16z m-125-342l-109 0c-4 0-8 4-8 8 0 4 4 8 8 8l109 0c4 0 7-4 7-8 0-4-3-8-7-8z m0 35l-109 0c-4 0-8 4-8 8 0 5 4 8 8 8l109 0c4 0 7-3 7-8 0-4-3-8-7-8z m0 89l-109 0c-4 0-8 3-8 8 0 4 4 8 8 8l109 0c4 0 7-4 7-8 0-5-3-8-7-8z m0 35l-109 0c-4 0-8 4-8 8 0 5 4 8 8 8l109 0c4 0 7-3 7-8 0-4-3-8-7-8z m0 88l-109 0c-4 0-8 4-8 9 0 4 4 8 8 8l109 0c4 0 7-4 7-8 0-5-3-9-7-9z m0 36l-109 0c-4 0-8 4-8 8 0 4 4 8 8 8l109 0c4 0 7-4 7-8 0-4-3-8-7-8z m94-259l18-19c1-1 1-2 0-3l-12-12c-1-1-3-1-4 0l-18 18c-1 1-2 1-3 0l-18-18c-1-1-2-1-3 0l-13 12c-1 1-1 2 0 3l18 18c1 1 1 3 0 4l-18 18c-1 1-1 2 0 3l13 13c1 1 2 1 3 0l18-18c1-1 2-1 3 0l18 18c1 1 3 1 4 0l12-13c1-1 1-2 0-3l-18-18c-1-1-1-3 0-3z m20 150l-48-48c0 0-1-1-1-1-1 0-1 0-1 0 0 0 0 0 0 0 0 0-1 1-1 1l-23 23c-1 1-1 1-1 2 0 1 0 1 1 2l12 12c1 1 3 1 4 0l8-9 34 34c0 0 1 1 1 1 1 0 2-1 2-1l13-13c1-1 1-2 0-3z m0 121l-48-48c0 0-1 0-1 0-1 0-1 0-1 0 0 0 0 0 0 0 0 0-1 0-1 0l-23 23c-1 1-1 2-1 2 0 1 0 1 1 2l12 12c1 1 3 1 4 0l8-8 34 33c0 1 1 1 1 1 1 0 2 0 2-1l13-12c1-1 1-3 0-4z"/>
<glyph glyph-name="pruzkumy" unicode="&#125;" d="M462 124l-82 0 0 198c0 14-11 17-25 17-14 0-25-3-25-17l0-198-41 0 0 256c0 13-11 16-25 16-13 0-25-3-25-16l0-256-41 0 0 132c0 14-11 17-25 17-13 0-24-3-24-17l0-132-33 0 0 297c0 5-4 8-9 8-4 0-8-3-8-8l0-297-33 0c-5 0-8-4-8-8 0-5 3-9 8-9l33 0 0-33c0-4 4-8 8-8 5 0 9 4 9 8l0 33 346 0c5 0 9 4 9 9 0 4-4 8-9 8z"/>
<glyph glyph-name="publikace" unicode="&#92;" d="M336 433c-13 13-31 11-41-5l-10-17c-7-13-6-31 1-44-9 2-18 1-26-2l-91-39c-16-7-32-26-37-43l-49-186c-2-6-3-11-5-16l152 151c-3 8-1 17 5 23 8 8 21 8 30 0 8-8 8-22 0-30-7-6-15-7-23-4l-151-151c5 1 10 3 15 4l187 49c17 4 36 20 43 36l39 91c3 8 4 18 2 27 13-6 30-7 42 0l18 10c15 10 18 28 5 41z"/>
<glyph glyph-name="rozpisy" unicode="&#57347;" d="M222 277l66 0 0-42-66 0z m0 57l66 0 0-41-66 0z m83-57l66 0 0-42-66 0z m-83-58l66 0 0-41-66 0z m83 115l66 0 0-41-66 0z m0-115l66 0 0-41-66 0z m-165 115l66 0 0-41-66 0z m0-115l66 0 0-41-66 0z m265 173l-298 0c-14 0-24-11-24-24l0-224c0-13 10-24 24-24l298 0c14 0 24 11 24 24l0 224c0 13-10 24-24 24z m-17-231l-265 0 0 190 265 0z m-248 116l66 0 0-42-66 0z"/>
<glyph glyph-name="rozvrh" unicode="&#57344;" d="M111 254l46 0c5 0 9 4 9 9 0 5-4 9-9 9l-46 0c-5 0-9-4-9-9 0-5 4-9 9-9z m122 0l46 0c5 0 9 4 9 9 0 5-4 9-9 9l-46 0c-5 0-9-4-9-9 0-5 4-9 9-9z m122 0l46 0c5 0 9 4 9 9 0 5-4 9-9 9l-46 0c-5 0-9-4-9-9 0-5 4-9 9-9z m-122-72l46 0c5 0 9 4 9 9 0 5-4 9-9 9l-46 0c-5 0-9-4-9-9 0-5 4-9 9-9z m122 0l46 0c5 0 9 4 9 9 0 5-4 9-9 9l-46 0c-5 0-9-4-9-9 0-5 4-9 9-9z m-244 0l46 0c5 0 9 4 9 9 0 5-4 9-9 9l-46 0c-5 0-9-4-9-9 0-5 4-9 9-9z m122-72l46 0c5 0 9 4 9 9 0 5-4 9-9 9l-46 0c-5 0-9-4-9-9 0-5 4-9 9-9z m122 0l46 0c5 0 9 4 9 9 0 5-4 9-9 9l-46 0c-5 0-9-4-9-9 0-5 4-9 9-9z m-297-26c0-10 8-18 18-18l360 0c10 0 18 8 18 18l0 232-396 0z m297 204l46 0c14 0 26-11 26-25 0-14-12-26-26-26l-46 0c-14 0-26 12-26 26 0 14 12 25 26 25z m0-72l46 0c14 0 26-11 26-25 0-14-12-26-26-26l-46 0c-14 0-26 12-26 26 0 14 12 25 26 25z m0-72l46 0c14 0 26-11 26-25 0-14-12-26-26-26l-46 0c-14 0-26 12-26 26 0 14 12 25 26 25z m-122 144l46 0c14 0 26-11 26-25 0-14-12-26-26-26l-46 0c-14 0-26 12-26 26 0 14 12 25 26 25z m0-72l46 0c14 0 26-11 26-25 0-14-12-26-26-26l-46 0c-14 0-26 12-26 26 0 14 12 25 26 25z m0-72l46 0c14 0 26-11 26-25 0-14-12-26-26-26l-46 0c-14 0-26 12-26 26 0 14 12 25 26 25z m-122 144l46 0c14 0 26-11 26-25 0-14-12-26-26-26l-46 0c-14 0-26 12-26 26 0 14 12 25 26 25z m0-72l46 0c14 0 26-11 26-25 0-14-12-26-26-26l-46 0c-14 0-26 12-26 26 0 14 12 25 26 25z m0-72l46 0c14 0 26-11 26-25 0-14-12-26-26-26l-46 0c-14 0-26 12-26 26 0 14 12 25 26 25z m0-34l46 0c5 0 9 4 9 9 0 5-4 9-9 9l-46 0c-5 0-9-4-9-9 0-5 4-9 9-9z m46 255c7 0 13 7 13 14l0 54c0 7-6 13-13 13-8 0-14-6-14-13l0-54c0-7 6-14 14-14z m198 0c8 0 14 7 14 14l0 54c0 7-6 13-14 13-7 0-13-6-13-13l0-54c0-7 6-14 13-14z m81 23l-51 0 0-9c0-17-13-30-30-30-16 0-30 13-30 30l0 9-138 0 0-9c0-17-14-30-30-30-17 0-30 13-30 30l0 9-51 0c-10 0-18-8-18-18l0-36 396 0 0 36c0 10-8 18-18 18z"/>
<glyph glyph-name="seminarni-skupiny" unicode="&#57381;" d="M365 341c31 0 56 26 56 57 0 31-25 56-56 56-32 0-57-25-57-56 0-31 25-57 57-57z m-196-13c37 0 67 30 67 67 0 37-30 67-67 67-37 0-67-30-67-67 0-37 30-67 67-67z m62-17c-11-18-34-30-60-30-27 0-49 12-61 30l0 1 0 0c-39 0-77-23-77-93 0 0 0-118 0-137 0-19 18-32 31-32 13 0 197 0 211 0 13 0 31 13 31 32 0 19 0 137 0 137 0 69-37 92-75 92z m185 17c-9-16-28-26-50-26-22 0-41 10-51 25l0 1 0 0c-14 0-28-4-39-12 24-13 46-40 46-97l0-111c50 0 123 0 131 0 11 0 26 11 26 27 0 16 0 115 0 115 0 58-31 77-63 78z"/>
<glyph glyph-name="setkavani" unicode="&#57345;" d="M234 309c1 0 3 1 4 1 4 3 5 8 3 12-19 31-6 45 10 62 14 16 31 35 13 66-3 4-8 5-12 3-4-2-5-7-3-11 12-20 5-30-11-47-16-18-36-40-11-82 1-2 4-4 7-4z m62 0c1 0 3 1 4 1 4 3 5 8 3 12-18 31-6 45 10 62 14 16 31 35 13 66-3 4-8 5-12 3-3-2-5-7-2-11 11-20 4-30-11-47-17-18-37-40-12-82 1-2 4-4 7-4z m-124 0c1 0 3 1 4 1 4 3 5 8 3 12-19 31-6 45 9 62 14 16 32 35 13 66-2 4-7 5-11 3-4-2-5-7-3-11 12-20 4-30-11-47-16-18-36-40-11-82 1-2 4-4 7-4z m191-7l-245 0c-17 0-35-11-35-26l0-103c0-50 46-115 89-115 5 0 29 0 56 0 5 0 20 0 25 0 27 0 51 0 56 0 43 0 89 65 89 115l0 103c0 15-19 26-35 26z m61-26l-17 0c0 0 0 0 0 0 0 0 0 0 0 0l0-16c0 0 0 0 0 0l17 0c21 0 38-19 38-42 0-22-17-41-38-41l-3 0c-3 0-9 0-14 0l0-4c0-4-1-8-1-12 6 0 12 0 15 0l3 0c30 0 55 26 55 57 0 32-25 58-55 58z"/>
<glyph glyph-name="skolitel" unicode="&#57346;" d="M260 310c37 0 67 30 67 68 0 37-30 68-67 68-37 0-67-31-67-68 0-38 30-68 67-68z m62-17c-11-18-34-30-60-30-27 0-50 12-61 30l0 0 0 0c-39 0-77-22-77-93 0 0 0-119 0-138 0-19 18-33 31-33 13 0 198 0 211 0 13 0 31 14 31 33 0 19 0 138 0 138 0 70-37 93-75 93z m158 207l-110 0c-17 0-31-15-31-33l0-70c0-18 11-33 25-33l8 0-7-39 43 39 72 0c18 0 32 15 32 33l0 70c0 18-14 33-32 33z m15-103c0-9-6-16-15-16l-78 0-12-11 2 11-28 0c-4 0-9 6-9 16l0 70c0 9 7 16 15 16l110 0c9 0 15-7 15-16z"/>
<glyph glyph-name="soubory" unicode="&#57348;" d="M147 335l278 0 0 9c0 11-9 20-20 20l-209 0c-12 0-22 4-29 11-6 6-9 13-9 20 0 4-1 6-3 8-4 4-10 6-16 6l-53 0c-11 0-20-9-20-20l0-225 36 137c5 19 25 34 45 34z m330-22c-3 3-7 4-11 4l-319 0c-12 0-25-9-27-20l-47-177c-1-5-1-9 2-12 1-2 4-4 7-4 1-1 2-1 4-1l319 0c3 0 6 1 9 2 9 3 16 11 18 19l23 89 23 88c1 1 1 2 1 3 0 3 0 5-1 6 0 1-1 2-1 3z"/>
<glyph glyph-name="stipendia" unicode="&#57349;" d="M263 296c-2 0-5 0-7-2-3-2-6-6-7-11-1-5 1-12 4-17 6-11 18-16 26-12 8 5 10 18 4 29-5 8-13 13-20 13z m64 37c-2 0-5-1-7-2-3-2-6-6-7-11-1-6 1-12 4-17 6-11 18-17 26-12 4 2 6 6 7 11 1 6 0 12-3 18-5 8-13 13-20 13z m83-158c-31 0-56-25-56-57 0-31 25-56 56-56 31 0 56 25 56 56 0 32-25 57-56 57z m-172 0c-31 0-56-25-56-57 0-31 25-56 56-56 31 0 56 25 56 56 0 32-25 57-56 57z m-150 118l0 0-37-20c-13-8-18-25-10-38l70-128c7-13 24-18 37-11l18 10c0 4-1 8-1 12 0 10 2 18 5 27z m313 143c-7 13-24 18-37 11l-261-146 76-139c14 18 35 29 59 29 18 0 35-7 48-18l175 97c13 7 18 24 10 38z m-161-223c-1-1-2-1-4-1-3 0-5 2-7 4l-24 42-2-3c-3-4-8-5-12-2-3 2-4 8-2 11l11 14c1 3 4 4 7 4 3 0 5-2 6-4l30-54c3-4 1-9-3-11z m47 27c-4-3-9-4-15-4-13 0-26 8-34 22-5 9-7 19-5 28 2 10 7 18 15 23 5 2 10 4 15 4 13 0 26-9 34-22 11-19 6-42-10-51z m79 59c-1-10-7-18-15-22-4-3-9-4-15-4-13 0-26 8-33 21-5 9-7 19-6 29 2 10 7 18 15 23 5 2 10 3 15 3 13 0 26-8 34-21 5-9 7-19 5-29z"/>
<glyph glyph-name="studijni" unicode="&#57351;" d="M165 328c38 0 68 30 68 67 0 37-30 67-68 67-37 0-67-30-67-67 0-37 30-67 67-67z m62-17c-11-18-34-30-60-30-27 0-49 12-60 30l-1 1 0 0c-39 0-77-23-77-93 0 0 0-118 0-137 0-19 18-32 31-32 13 0 198 0 211 0 14 0 31 13 31 32 0 19 0 137 0 137 0 69-37 92-75 92z m248 127l-182 0c-5 0-8-4-8-8 0-5 3-8 8-8l182 0c4 0 8 3 8 8 0 4-4 8-8 8z m0-51l-130 0c-4 0-8-4-8-9 0-4 4-8 8-8l130 0c4 0 8 4 8 8 0 5-4 9-8 9z m0-52l-130 0c-4 0-8-4-8-8 0-5 4-9 8-9l130 0c4 0 8 4 8 9 0 4-4 8-8 8z m0-52l-130 0c-4 0-8-3-8-8 0-5 4-8 8-8l130 0c4 0 8 3 8 8 0 5-4 8-8 8z m0-51l-130 0c-4 0-8-4-8-9 0-4 4-8 8-8l130 0c4 0 8 4 8 8 0 5-4 9-8 9z"/>
<glyph glyph-name="studijni-materialy" unicode="&#57382;" d="M127 311l104 0c4 0 7 4 7 7l0 104c0 4-3 7-7 7l-7 0-104-104 0-7c0-3 3-7 7-7z m258 118l-100 0c-3 0-6-2-7-5l0 0 0-146c0 0 0 0 0 0 0-4-3-7-7-7l-144 0c-3 0-6-3-7-6l0 0 0-176c0-3 3-6 7-6l258 0c4 0 7 3 7 6l0 333c0 4-3 7-7 7z"/>
<glyph glyph-name="studium" unicode="&#57352;" d="M441 353l-13 0c1-2 1-3 1-5l0-197-12 7c-21 11-43 17-66 17-34 0-62-14-71-19-9-4-15-6-19-6-2 0-4 0-5 0-1 0-3 0-5 0-4 0-10 2-19 6-10 5-37 19-71 19-23 0-45-6-66-17l-12-7 0 197c0 2 0 3 1 5l-10 0c-14 0-25-13-24-27l0-184c0-13 11-24 25-24l366 0c13 0 21 9 21 22l0 184c0 14-8 29-21 29z m-168-182c27 13 53 20 78 20 21 0 42-4 62-13l0 170c0 1 0 2-1 2 0 1 0 2 0 3 0 0 0 0 0 0-5 14-30 24-61 24-4 0-8 0-12 0-32-3-54-15-65-24 0 0 0 0 0 0-5-4-7-8-9-10 0 0 0 0 0-1 0 0 0-1 0-1l0-166c0-2-1-4-1-6 0-1 0-2 0-2 0 0 0 0 0 0 2 0 5 1 9 4z m-34 0c4-3 7-4 9-4 0 0 0 0 0 0 0 0 0 1 0 2 0 2-1 4-1 6l0 166c0 0 0 1 0 1 0 1 0 1 0 1-2 2-4 6-9 10 0 0 0 0 0 0-11 9-33 21-65 24-4 0-8 0-12 0-31 0-56-10-61-24 0 0 0 0 0 0 0-1 0-2 0-3-1 0-1-1-1-2l0-170c20 9 41 13 62 13 25 0 51-7 78-20z"/>
<glyph glyph-name="udalosti" unicode="&#57355;" d="M153 370c8 0 14 7 14 14l0 56c0 8-6 14-14 14-8 0-14-6-14-14l0-56c0-7 6-14 14-14z m291 24l-61 0 0-10c0-13-11-23-24-23-13 0-23 10-23 23l0 10-160 0 0-10c0-13-10-23-23-23-13 0-24 10-24 23l0 10-61 0c-10 0-18-9-18-19l0-37 412 0 0 37c0 10-8 19-18 19z m-85-24c8 0 14 7 14 14l0 56c0 8-6 14-14 14-8 0-14-6-14-14l0-56c0-7 6-14 14-14z m-27-116l-76-84 76 0z m-282-178c0-10 8-18 18-18l376 0c10 0 18 8 18 18l0 243-412 0z m178 91l106 118c3 2 7 3 10 2 4-1 6-5 6-9l0-108 25 0c5 0 9-4 9-9 0-5-4-9-9-9l-25 0 0-39c0-5-4-9-9-9-5 0-9 4-9 9l0 39-97 0c-3 0-7 2-8 5-2 3-1 7 1 10z m-95 103l41 13c3 1 6 0 8-2 3-1 4-4 4-7l0-161c0-5-4-9-9-9-5 0-10 4-10 9l0 148-28-9c-5-2-10 1-12 6-2 5 1 10 6 12z"/>
<glyph glyph-name="uradovna" unicode="&#57356;" d="M82 82c0-16 13-28 28-28l292 0c15 0 28 12 28 28l0 1-348 0z m343 77c0 0-103 16-104 16-17 3-30 16-37 36-12 37-4 88 18 111 26 27 29 40 29 61 0 42-34 75-75 75-41 0-75-33-75-75 0-21 3-34 29-61 22-23 30-74 18-111-7-20-20-33-37-36-1 0-104-16-104-16-11-1-22-13-23-25l-2-16c0-5 1-10 4-13 3-4 8-6 13-6l354 0c5 0 10 2 13 6 3 3 4 8 4 13l-2 16c-1 12-12 24-23 25z m-169 209c-8 0-14 7-14 14 0 8 6 14 14 14 8 0 14-6 14-14 0-7-6-14-14-14z"/>
<glyph glyph-name="vyveska" unicode="&#57357;" d="M113 199l27 176-94-166c-10-17-4-38 12-47l209-120c16-10 37-4 46 12l37 66-201 31c-23 3-39 25-36 48z m319 223l-237 36c-1 0-2 0-4 0-12 0-23-9-25-22l-36-239c-2-14 7-27 21-30l238-36c14-2 27 8 29 22l36 239c2 14-8 28-22 30z m-229 6c9 0 16-7 16-16 0-9-7-16-15-16-9 0-16 7-16 16 0 8 7 16 15 16z m-17-126l95-15c5-1 8-5 7-10 0-4-4-7-8-7 0 0-1 0-1 0l-96 15c-4 1-8 5-7 10 1 4 5 7 10 7z m133-96c-1 0-1 0-2 1l-142 21c-5 1-8 5-7 10 0 4 5 8 9 7l143-22c4-1 8-5 7-9-1-5-4-8-8-8z m76 102c0 0-1 0-1 1l-203 30c-4 1-7 5-7 10 1 5 5 8 10 7l202-31c5-1 8-5 7-9 0-5-4-8-8-8z"/>
<glyph glyph-name="system" unicode="&#57358;" d="M443 292l-31 0c-3 12-8 24-14 35l22 22c10 11 10 28 0 39l-24 23c-11 11-28 11-39 0l-22-22c-11 6-23 11-35 14l0 32c0 15-12 27-27 27l-34 0c-15 0-27-12-27-27l0-32c-12-4-23-9-34-15l-23 23c-11 11-28 11-39 0l-24-23c-10-11-10-28 0-39l24-23c-6-11-11-22-14-34l-33 0c-15 0-28-12-28-28l0-33c0-15 13-27 28-27l33 0c3-12 8-24 14-34l-24-24c-10-10-10-28 0-38l24-24c11-11 28-11 39 0l23 23c11-6 22-11 34-14l0-33c0-15 12-27 27-27l34 0c15 0 27 12 27 27l0 32c12 4 24 8 35 14l22-22c11-11 28-11 39 0l24 24c10 10 10 28 0 38l-22 22c6 11 11 23 14 36l31 0c15 0 28 12 28 27l0 34c0 15-13 27-28 27z m-186-130c-47 0-86 38-86 86 0 47 39 86 86 86 48 0 86-39 86-86 0-48-38-86-86-86z"/>
<glyph glyph-name="student" unicode="&#57350;" d="M318 321c-11-18-34-31-61-31-26 0-49 12-60 30l-1 1 0 0c-39 0-76-23-76-93 0 0 0-119 0-139 0-19 17-33 31-33 13 0 197 0 210 0 14 0 31 14 31 33 0 20 0 139 0 139 0 69-36 92-74 93z m32 123l0-36-8 0 0-27 33 0 0 27-9 0 0 39 21 4-129 23-135-23 135-23z m-89-33l-3 0-3 0-62 11 0-6c-3-8-4-7-4-16 0-36 29-66 66-66 36 0 66 30 66 66 0 9-1 8-4 16l0 5z"/>
<glyph glyph-name="ucitel" unicode="&#57354;" d="M256 354c37 0 66 30 66 66 0 37-29 67-66 67-37 0-66-30-66-67 0-36 29-66 66-66z m184-154c-10 28-31 85-31 85-19 50-56 52-94 52-10-18-33-30-59-30-26 0-49 12-59 30-38 0-75-2-94-52 0 0-21-57-31-85-5-13 0-26 13-35 8-6 25-17 37-25l5-3 0-48 130-64 132 64 0 50 3 2c12 8 27 19 35 24 13 9 18 22 13 35z m-297-72c11-3 23 1 30 11l3 5c9 13 6 31-7 40l-26 18 0 20 107-44 0-132-107 53z m230 96l-1 0 0-20-29-20c-13-9-16-27-7-40l3-5c7-11 21-15 33-10l0-30-107-52 0 132 108 45 0 0z"/>
<glyph glyph-name="cloud-h40" unicode="&#57387;" d="M432 294c-3 0-6 0-9 0-7 53-47 94-96 94-13 0-25-3-36-8-18 26-45 42-76 42-50 0-91-42-97-97-7 2-15 4-23 4-45 0-82-42-82-94 0-52 37-94 82-94 38 0 312 0 337 0 37 0 67 34 67 77 0 42-30 76-67 76z"/>
<glyph glyph-name="link-h40" unicode="&#57389;" d="M362 362c-28 28-73 29-102 3l0 0-37-37c-7-7-12-15-16-23-7-3-14-8-20-13l0 0-37-38c-29-29-29-75 0-104 29-29 75-29 104 0l38 37 0 0c5 6 10 13 13 20 8 4 16 9 23 16l37 37 0 0c26 29 25 74-3 102z m-133-186c-14-14-38-14-53 0-14 15-14 39 0 53l28 27c3-12 9-24 19-33 9-10 21-16 33-19z m20 73c-6 7-10 16-10 24 8 0 17-4 24-10 6-7 10-16 10-24-8 0-17 4-24 10z m89 36l-2-2-28-27c-3 12-9 23-19 33-10 10-21 16-33 19l27 28c0 0 0 0 0 0l2 2 0 0c15 12 37 12 51-2 14-14 14-36 2-51z"/>
<glyph glyph-name="zobrazeni-ikony-h40" unicode="&#57396;" d="M216 256l-74 0c-11 0-20 9-20 21l0 74c0 11 9 20 20 20l74 0c12 0 21-9 21-20l0-74c0-12-9-21-21-21z m-56 38l38 0 0 39-38 0z m210-38l-74 0c-12 0-21 9-21 20l0 75c0 11 9 20 21 20l74 0c11 0 20-9 20-20l0-75c0-11-9-20-20-20z m-56 38l38 0 0 39-38 0z m56-192l-74 0c-12 0-21 10-21 21l0 74c0 11 9 21 21 21l74 0c11 0 20-10 20-21l0-74c0-11-9-21-20-21z m-56 39l38 0 0 38-38 0z m-98-39l-74 0c-11 0-20 10-20 21l0 74c0 11 9 21 20 21l74 0c12 0 21-10 21-21l0-74c0-11-9-21-21-21z m-56 39l38 0 0 38-38 0z"/>
<glyph glyph-name="pridat-h40" unicode="&#57399;" d="M369 363c-62 62-164 62-226 0-63-63-63-164 0-227 62-62 164-62 226 0 63 63 63 164 0 227z m-37-133l-57 0 0-56c0-4-3-8-7-8l-24 0c-4 0-7 4-7 8l0 56-57 0c-4 0-7 4-7 8l0 23c0 4 3 8 7 8l57 0 0 56c0 4 3 8 7 8l24 0c4 0 7-4 7-8l0-56 57 0c4 0 7-3 7-7l0-24c0-4-3-8-7-8z"/>
<glyph glyph-name="pridat-slozku-h40" unicode="&#57401;" d="M107 309c6 20 28 37 49 37l241 0 0 6c0 10-7 19-17 19l-175 0c-10 0-18 0-24 6-5 5-8 12-8 19 0 5-2 14-15 14l-49 0c-10 0-19-11-19-21l0-144z m347-131l-57 0 0 57c0 4-3 7-7 7l-25 0c-4 0-7-3-7-7l0-57-57 0c-4 0-7-3-7-7l0-25c0-4 3-7 7-7l57 0 0-57c0-4 3-7 7-7l25 0c4 0 7 3 7 7l0 57 57 0c4 0 7 3 7 7l0 25c0 4-3 7-7 7z m-185-32l0 25c0 18 14 34 32 34l32 0 0 30c0 18 14 34 32 34l25 0c18 0 32-15 32-33l20 69c0 1 0 2 0 3 0 2 0 3-1 5 0 0 0 2-1 2-2 3-5 5-10 5l-274 0c-10 0-21-9-24-18l-42-149c-1-3 0-7 2-10 1-1 3-2 6-3 1 0 2 1 3 1l168 0c0 0 0 3 0 5z"/>
<glyph glyph-name="vepsat-soubor-h40" unicode="&#57403;" d="M127 324l97 0 0 85c0 1 0 3 1 4l-14 0-77-64-12-13 0-13c1 0 3 1 5 1z m62-201l5 27 0 2 0 1 2 6c3 14 15 32 27 41l123 91 6 4 0 113c0 3-3 5-6 5l-91 0c-2 0-5-2-5-4l0 0 0-105c0 0 0 0 0 0 0-3-3-6-6-6l-117 0c-3 0-5-2-5-5l0 0 0-169c0-3 2-5 5-5l62 0z m118-4l39 0c3 0 6 2 6 5l0 28z m84 95l-37 51-116-86c-7-5-15-18-17-26l-2-7-4-27 26-1 5 0 0 0c9 0 23 4 30 10l116 85z m21 15l22 16c5 3 6 11 2 16l-24 32c-2 3-6 5-10 5-2 0-4-1-6-2l-21-16z"/>
<glyph glyph-name="zip-h40" unicode="&#57412;" d="M115 170l88 0 0-29-133 0 0 20 85 142-85 0 0 30 131 0 0-19z m160-29l-38 0 0 192 38 0z m77 69l0-69-38 0 0 192 72 0c22 0 40-6 52-17 13-11 19-26 19-45 0-18-6-33-19-44-12-11-30-17-52-17z m0 30l35 0c10 0 18 3 24 9 5 6 8 13 8 22 0 9-3 17-8 23-5 6-14 9-24 9l-35 0z"/>
<glyph glyph-name="presunout-h30" unicode="&#57398;" d="M128 290l102 0c5 0 9 4 9 9l0 102c0 3 1 6 2 9l-26 0-96-96 0-25c3 1 6 1 9 1z m222-188c5 0 8 4 8 9l0 290c0 5-3 9-8 9l-85 0c-5 0-9-4-9-9l0-102c0-14-11-26-26-26l-102 0c-5 0-9-4-9-8l0-154c0-5 4-9 9-9z m-328 399l6 4m-6-7l6 4m-6-6l6 4"/>
<glyph glyph-name="kopirovat-h30" unicode="&#57391;" d="M247 324c5 0 9 4 9 9l0 102c0 3 1 6 2 9l-26 0-95-96 0-25c2 1 5 1 8 1z m120 120l-85 0c-5 0-9-4-9-9l0-102c0-14-11-26-26-26l-102 0c-5 0-8-4-8-8l0-154c0-5 3-8 8-8l222 0c5 0 8 3 8 8l0 290c0 5-3 9-8 9z m-222-325c-3 0-6 1-8 2l0-44c0-5 3-9 8-9l222 0c5 0 8 4 8 9l0 44c-2-1-5-2-8-2z"/>
<glyph glyph-name="pridat-soubor-h40" unicode="&#57398;" d="M121 307l97 0 0 85c0 2 0 3 0 5l-15 0-88-77 0-13c2 0 4 0 6 0z m212-115l0-90 77 0 0 90 25 0-64 67-64-67z m-26-90l0 64c-10 0-19 6-23 16-4 9-3 20 4 27l58 60 0 122c0 3-3 6-6 6l-91 0c-3 0-5-2-6-4l0 0 0-111c0 0 0 5 0 5 0-3-2-5-6-5l-116 0c-3 0-5-3-6-5l0 0 0-169c0-3 3-6 6-6l186 0c0 0 0 0 0 0z"/>
<glyph glyph-name="ocr-h30" unicode="&#57402;" d="M367 410l-222 0c-5 0-8-4-8-9l0-290c0-5 3-9 8-9l222 0c5 0 8 4 8 9l0 290c0 5-3 9-8 9z m-134-213l-8 32-33 0-9-32-27 0 36 125 34 0 35-125z m90-2c-10 0-19 4-25 15l-1 0-1-13-22 0c1 6 1 17 1 27l0 104 26 0 0-51 0 0c5 8 14 13 25 13 20 0 35-18 35-46 0-32-19-49-38-49z m-6 73c-7 0-14-6-16-14 0-1 0-3 0-5l0-13c0-2 0-4 0-5 2-8 8-13 16-13 11 0 17 9 17 25 0 14-5 25-17 25z m-109 33l-1 0c-1-8-3-17-5-24l-7-27 26 0-7 27c-2 7-4 16-6 24z"/>
<glyph glyph-name="presunout-h30" unicode="&#57409;" d="M230 290c5 0 9 4 9 9l0 102c0 3 1 6 2 9l-26 0-96-96 0-25c3 1 6 1 9 1z m120 120l-85 0c-5 0-9-4-9-9l0-102c0-14-11-26-26-26l-102 0c-5 0-9-4-9-8l0-154c0-5 4-9 9-9l222 0c5 0 8 4 8 9l0 290c0 5-3 9-8 9z m122-16l10-14-99-70-9 13z m-88-127l-10 14 98 71 10-14z m0-42l-10 14 98 70 10-14z"/>
<glyph glyph-name="garant" unicode="&#57422;" d="M268 339c38 0 67 31 67 68 0 37-29 68-67 68-37 0-67-31-67-68 0-38 30-68 67-68z m62-17c-10-18-34-30-60-30-26 0-49 12-60 30l-1 0c-39 0-77-23-77-93 0 0 0-13 0-32l25 0 0 42c0 9 7 16 16 16l100 0c9 0 16-7 16-16l0-44c17-6 31-23 31-43 0-25-20-45-44-45l-144 0c0-8 0-14 0-17 0-19 18-33 32-33 13 0 197 0 210 0 13 0 31 14 31 33 0 19 0 139 0 139 0 69-37 92-75 93z m-27-169c0 15-12 29-27 29l-144 0c0-19 0-41 0-58l144 0c15 0 27 13 27 29z"/>
<glyph glyph-name="odpovednik" unicode="&#57372;" d="M157 105c-4 0-7 3-7 7 0 0 0 57 0 61 1 16-6 24-6 25-4 6-11 8-18 5-3-2-5-4-8-5-11-7-22-9-33-2-10 6-15 15-17 27-1 17 13 34 29 36 13 1 23-8 27-11 7-4 15-2 20 4 4 7 6 14 6 23 0 5-2 62-2 62 0 4 4 7 8 7 0 0 50 1 60 1 9 0 17 1 25 5 4 2 6 5 8 9 2 4 1 8-1 11-3 4-3 4-3 4-2 4-7 9-7 22 0 10 5 30 31 31 17 0 30-6 35-22 2-8 0-18-3-25-2-3-4-6-6-9-5-8-3-16 5-21 8-4 17-5 25-5 3 0 59-1 59-1 4 0 7-3 7-7 0 0 0-42 0-65 0-7-1-14-6-20-5-6-13-7-20-3-3 2-7 4-11 6-6 4-14 5-21 3-12-4-19-11-23-23-3-12 0-22 7-31 5-8 13-12 22-13 7 0 14 3 14 3 3 2 15 11 26 9 10-2 14-21 14-29 0-18-4-62-4-62 0-4-3-8-7-8 0 0-35 0-48-1-10 0-20 0-29 2-26 7-6 33-4 37 8 13 2 30-9 38-6 5-13 8-21 8-10-1-18-4-25-12-10-10-13-25-4-37 2-3 4-6 5-9 5-7 2-16-6-20-7-4-14-6-23-6-8 1-61 1-61 1z"/>
<glyph glyph-name="sipka-dolu" unicode="&#57426;" d="M329 183l0 183-146 0 0-183-55 0 128-128 128 128z"/>
<glyph glyph-name="sipka-vlevo" unicode="&#57427;" d="M229 148l182 0 0 146-182 0 0 55-128-128 128-128z"/>
<glyph glyph-name="sipka-vpravo" unicode="&#87;" d="M283 293l-182 0 0-147 182 0 0-55 128 128-128 128z"/>
<glyph glyph-name="sipka-nahoru" unicode="&#35;" d="M183 256l0-183 146 0 0 183 55 0-128 128-128-128z"/>
<glyph glyph-name="sipka-diagonal-sbalit" unicode="&#57428;" d="M419 348l-53 52-65-65-27 26 0-105 105 0-26 26z m-327-221l53-53 65 66 28-27 0 106-106 0 26-27z"/>
<glyph glyph-name="sipka-svisle-rozbalit" unicode="&#57429;" d="M220 274l73 0 0 110 36 0-73 73-73-73 36 0z m73-73l-73 0-1-110-36 0 73-73 73 73-36 0z"/>
<glyph glyph-name="sipka-svisle-sbalit" unicode="&#57430;" d="M293 439l-74 0 0-110-36 0 73-73 73 73-36 0z m-74-402l74 0 0 109 36 0-73 73-73-73 36 0z"/>
<glyph glyph-name="sipka-vodorovne-rozbalit" unicode="&#57431;" d="M293 274l0-73 110 0 0-36 74 73-74 73 0-37z m-73-73l0 73-110 0 0 37-73-73 73-73 0 36z"/>
<glyph glyph-name="sipka-vodorovne-sbalit" unicode="&#57432;" d="M457 201l0 73-110 0 0 37-73-73 73-73 0 36z m-404 73l0-73 110 0 0-36 75 73-75 73 0-37z"/>
<glyph glyph-name="sipka-vse-rozbalit" unicode="&#57433;" d="M276 315l53-53 65 66 27-26 0 105-105 0 26-26z m-39-144l-53 52-65-66-28 27 0-106 106 0-26 27z m-54 92l53 52-66 66 26 26-105 0 0-105 27 26z m145-40l-53-52 66-66-26-27 106 0 0 106-28-27z"/>
<glyph glyph-name="sipka-vse-sbalit" unicode="&#57434;" d="M437 366l-53 53-65-66-26 26 0-105 105 0-27 27z m-309 53l-53-53 66-65-27-27 105 0 0 105-26-26z m-53-310l53-52 65 65 26-26 0 105-105 0 27-26z m311-52l53 52-67 66 27 26-106 0 0-105 26 26z"/>
<glyph glyph-name="link-pridat-h42" unicode="&#57435;" d="M410 154l-58 0 0 57c0 4-3 7-6 7l-26 0c-4 0-6-3-6-7l0-57-58 0c-4 0-6-3-6-7l0-25c0-4 2-7 6-7l58 0 0-57c0-4 2-7 6-7l26 0c3 0 6 3 6 7l0 57 58 0c3 0 6 3 6 7l0 25c0 4-3 7-6 7z m-186-7c0 18 14 32 32 32l20 0c4 5 7 10 9 16 1 0 2 0 3 1l0 15c0 18 14 32 32 32l22 0 4 4 0 1c26 29 25 74-3 102-28 28-73 28-102 2l0 0-37-37c-7-7-12-15-16-23-7-3-14-7-20-13l0 0-38-37c-28-29-28-76 0-105 26-26 65-29 94-9z m40 176c0 0 0 0 0 0l2 2 0 0c15 12 37 12 51-2 13-14 14-36 2-51l0 0-2-2-28-27c-3 12-9 24-19 33-10 10-21 16-34 20z m-21-73c7-7 11-15 11-24-9 0-17 4-24 11-6 6-10 15-11 24 9-1 18-5 24-11z m-86-87c-15 15-15 39 0 53l27 28c4-13 10-24 20-34 9-10 21-16 33-19l-27-27 0-1c-15-14-38-14-53 0z"/>
<glyph glyph-name="link-pridat" unicode="&#106;" d="M405 110l-67 0 0 67c0 3-3 6-7 6l-23 0c-4 0-6-3-6-6l0-67-67 0c-3 0-6-3-6-7l0-23c0-4 2-7 6-7 0 0 0 0 0 0l67 0 0-66c0-2 0-4 1-5 1-1 3-2 5-2l23 0c2 0 4 1 5 2 2 1 2 3 2 5l0 66 67 0c3 0 6 3 6 7l0 23c0 4-3 7-6 7z m-195-7c0 14 11 25 25 25l42 0 6 6 0 43c0 14 11 24 25 24l23 0c6 0 11-2 15-5l39 40 0 0c31 35 30 88-3 122-34 34-88 35-123 3l0 0-45-45c-8-8-14-17-18-27-9-4-17-9-24-16l0 1-45-45c-35-35-35-91 0-126 22-23 54-30 83-23z m76 223l3 3 0 0c18 15 44 14 61-3 16-16 17-43 2-60l0-1-2-2-33-33c-4 15-12 29-23 40-12 12-26 19-40 23z m-24-88c8-8 12-18 13-28-10 0-21 5-29 13-8 8-12 18-13 28 11 0 21-5 29-13z m-103-103c-18 17-18 46 0 63l32 33c4-15 12-29 23-40 12-12 26-20 41-23l-33-33 0 0c-18-18-46-18-63 0z"/>
<glyph glyph-name="is" unicode="&#83;" d="M402 392c-3 2-6 3-9 4-4 1-8 2-13 3-4 1-9 2-14 2-5 1-10 1-16 1-9 0-18-1-27-2-9-2-17-4-25-7-8-4-15-7-22-12-6-4-13-9-18-14-6-6-11-12-15-18-4-6-8-12-11-19-3-7-5-14-7-21-1-7-2-14-2-22 0-8 1-15 2-22 2-7 4-14 7-20 2-7 6-12 9-18 4-5 8-10 13-14 4-5 8-9 13-12 5-4 9-7 14-10 5-3 9-5 14-7 4-2 9-5 13-8 4-2 7-6 11-9 3-4 6-7 8-12 3-4 5-8 6-13 1-4 2-9 2-14 0-6-1-11-3-16-1-5-4-10-7-15-3-5-7-9-11-13-5-4-10-8-15-11-6-3-12-5-19-7-7-1-14-2-22-2-2 0-4 0-6 0-2 0-4 0-6 1-2 0-3 0-5 1l-33-58c2 0 5-1 8-2 3-1 7-2 11-3 5-1 10-2 15-2 5-1 10-1 16-1 10 0 19 1 28 3 9 1 18 4 26 7 8 3 16 7 24 11 7 5 14 10 21 16 6 5 12 12 17 18 5 7 10 14 13 22 4 8 7 16 9 24 2 9 3 18 3 27 0 9-1 17-3 26-2 8-5 16-8 24-4 7-8 14-13 21-5 6-10 12-16 18-6 5-12 10-19 14-6 5-13 8-20 11-5 2-9 5-13 8-3 2-6 5-9 8-3 3-5 7-6 10-2 3-3 6-4 10-1 3-1 6-1 9 0 5 0 10 2 14 2 5 4 9 7 12 3 4 6 8 10 11 4 3 8 5 13 8 5 2 10 3 15 5 5 1 11 1 16 1 4 0 7 0 11 0 3-1 6-1 9-2 3-1 5-2 7-2 1 0 1 1 2 3 1 2 2 4 4 6 1 3 3 6 5 9 1 3 3 6 5 9 2 3 4 6 5 9 2 3 4 6 5 9 2 2 3 5 4 6 1 2 2 4 2 4-1 1-4 2-7 3m-214-58c0 4-1 8-2 12-1 4-3 7-5 10-3 4-5 6-9 9-3 2-6 4-10 5-4 1-8 2-12 2-5 0-9-1-12-2-4-1-8-3-11-5-3-3-6-5-8-9-3-3-4-6-6-10-1-4-2-8-2-12 0-4 1-8 2-12 2-4 3-8 6-11 2-3 5-6 8-8 3-3 7-4 11-6 3-1 7-2 12-2 4 0 8 1 12 2 4 2 7 3 10 6 4 2 6 5 9 8 2 3 4 7 5 11 1 4 2 8 2 12m-48-80c-4-1-7-3-9-5-3-2-5-4-7-6-2-3-4-6-5-9-1-3-1-7-1-10l0-97c0-8 1-16 2-24 2-8 4-15 8-23 3-8 7-15 12-22 5-7 11-13 17-19 7-6 14-12 22-17l32 56c-5 3-10 7-13 11-4 4-7 8-9 12-3 5-5 9-6 14-1 4-1 8-1 13l0 96c0 3-1 7-2 10-1 3-3 6-5 9-2 2-4 5-6 6-3 2-6 4-9 5-3 1-7 2-10 2-4 0-7-1-10-2"/>
<glyph glyph-name="is-i" unicode="&#57370;" d="M188 334c0 4-1 8-2 12-1 4-3 7-5 10-3 4-5 6-9 9-3 2-6 4-10 5-4 1-8 2-12 2-5 0-9-1-12-2-4-1-8-3-11-5-3-3-6-5-8-9-3-3-4-6-6-10-1-4-2-8-2-12 0-4 1-8 2-12 2-4 3-8 6-11 2-3 5-6 8-8 3-3 7-4 11-6 3-1 7-2 12-2 4 0 8 1 12 2 4 2 7 3 10 6 4 2 6 5 9 8 2 3 4 7 5 11 1 4 2 8 2 12m-48-80c-4-1-7-3-9-5-3-2-5-4-7-6-2-3-4-6-5-9-1-3-1-7-1-10l0-97c0-8 1-16 2-24 2-8 4-15 8-23 3-8 7-15 12-22 5-7 11-13 17-19 7-6 14-12 22-17l32 56c-5 3-10 7-13 11-4 4-7 8-9 12-3 5-5 9-6 14-1 4-1 8-1 13l0 96c0 3-1 7-2 10-1 3-3 6-5 9-2 2-4 5-6 6-3 2-6 4-9 5-3 1-7 2-10 2-4 0-7-1-10-2"/>
<glyph glyph-name="is-s" unicode="&#57369;" d="M402 392c-3 2-6 3-9 4-4 1-8 2-13 3-4 1-9 2-14 2-5 1-10 1-16 1-9 0-18-1-27-2-9-2-17-4-25-7-8-4-15-7-22-12-6-4-13-9-18-14-6-6-11-12-15-18-4-6-8-12-11-19-3-7-5-14-7-21-1-7-2-14-2-22 0-8 1-15 2-22 2-7 4-14 7-20 2-7 6-12 9-18 4-5 8-10 13-14 4-5 8-9 13-12 5-4 9-7 14-10 5-3 9-5 14-7 4-2 9-5 13-8 4-2 7-6 11-9 3-4 6-7 8-12 3-4 5-8 6-13 1-4 2-9 2-14 0-6-1-11-3-16-1-5-4-10-7-15-3-5-7-9-11-13-5-4-10-8-15-11-6-3-12-5-19-7-7-1-14-2-22-2-2 0-4 0-6 0-2 0-4 0-6 1-2 0-3 0-5 1l-33-58c2 0 5-1 8-2 3-1 7-2 11-3 5-1 10-2 15-2 5-1 10-1 16-1 10 0 19 1 28 3 9 1 18 4 26 7 8 3 16 7 24 11 7 5 14 10 21 16 6 5 12 12 17 18 5 7 10 14 13 22 4 8 7 16 9 24 2 9 3 18 3 27 0 9-1 17-3 26-2 8-5 16-8 24-4 7-8 14-13 21-5 6-10 12-16 18-6 5-12 10-19 14-6 5-13 8-20 11-5 2-9 5-13 8-3 2-6 5-9 8-3 3-5 7-6 10-2 3-3 6-4 10-1 3-1 6-1 9 0 5 0 10 2 14 2 5 4 9 7 12 3 4 6 8 10 11 4 3 8 5 13 8 5 2 10 3 15 5 5 1 11 1 16 1 4 0 7 0 11 0 3-1 6-1 9-2 3-1 5-2 7-2 1 0 1 1 2 3 1 2 2 4 4 6 1 3 3 6 5 9 1 3 3 6 5 9 2 3 4 6 5 9 2 3 4 6 5 9 2 2 3 5 4 6 1 2 2 4 2 4-1 1-4 2-7 3"/>
<glyph glyph-name="gdpr" unicode="&#57360;" d="M83 98c0 0-43 137 48 230 86 89 219 45 219 45m28-300c-16 0-31 6-42 18l-106 112c-8 8-8 21 0 29 8 9 20 9 28 0l106-111c7-8 20-8 27 0 8 8 8 21 0 29-7 8-7 21 0 29 8 8 21 8 28 0 23-24 23-63 0-88-11-12-26-18-41-18z"/>
<glyph glyph-name="face-mimo-tema" unicode="&#57438;" d="M256 421c-96 0-174-78-174-174 0-96 78-174 174-174 96 0 174 78 174 174 0 96-78 174-174 174z m48-129c10 0 18-8 18-18 0-10-8-18-18-18-11 0-19 8-19 18 0 10 8 18 19 18z m-96 0c11 0 19-8 19-18 0-10-8-18-19-18-10 0-18 8-18 18 0 10 8 18 18 18z m148-95l-184-33c-1 0-1 0-2 0-5 0-10 4-10 9-2 6 2 11 8 12l184 33c6 1 12-3 13-9 1-5-3-11-9-12z"/>
<glyph glyph-name="face-otravne" unicode="&#57439;" d="M256 421c-96 0-174-78-174-174 0-96 78-174 174-174 96 0 174 78 174 174 0 96-78 174-174 174z m48-98c10 0 18-8 18-18 0-10-8-18-18-18-11 0-19 8-19 18 0 10 8 18 19 18z m-96 0c11 0 19-8 19-18 0-10-8-18-19-18-10 0-18 8-18 18 0 10 8 18 18 18z m156-184c-5-2-11 1-13 6-14 35-52 58-95 58-43 0-81-23-94-58-2-4-6-6-10-6-2 0-3 0-4 0-6 3-9 9-6 14 17 43 63 71 114 71 51 0 97-28 114-71 3-5 0-11-6-14z"/>
<glyph glyph-name="face-prinosne" unicode="&#57440;" d="M413 322l0-53c0-15-13-27-28-27l-103 0c-15 0-28 12-28 27l0 66c0 15 13 27 28 27l103 0c1 0 1 0 1 0-32 36-78 59-130 59-52 0-98-23-130-59l98 0c15 0 27-12 27-27l0-66c0-15-12-27-27-27l-104 0c-15 0-27 12-27 27l0 38c-7-19-11-39-11-60 0-96 78-174 174-174 96 0 174 78 174 174 0 27-6 52-17 75z m-23-143c-20-50-74-83-134-83-61 0-115 33-135 83-2 5 1 11 6 14 6 2 12-1 14-6 17-42 63-70 115-70 51 0 97 28 114 70 3 5 9 8 14 6 6-3 8-9 6-14z m-276 90c0-3 3-5 6-5l104 0c3 0 6 2 6 5l0 66c0 3-3 5-6 5l-104 0c-3 0-6-2-6-5z m83 47c10 0 18-9 18-19 0-10-8-18-18-18-10 0-18 8-18 18 0 10 8 19 18 19z m85 24c-3 0-6-2-6-5l0-66c0-3 3-5 6-5l103 0c4 0 6 2 6 5l0 66c0 3-2 5-6 5z m32-61c-10 0-19 8-19 18 0 10 9 19 19 19 10 0 18-9 18-19 0-10-8-18-18-18z"/>
<glyph glyph-name="face-vtipne" unicode="&#57441;" d="M256 421c-96 0-174-78-174-174 0-96 78-174 174-174 96 0 174 78 174 174 0 96-78 174-174 174z m48-98c10 0 18-8 18-18 0-10-8-18-18-18-11 0-19 8-19 18 0 10 8 18 19 18z m-96 0c11 0 19-8 19-18 0-10-8-18-19-18-10 0-18 8-18 18 0 10 8 18 18 18z m48-221c-60 0-114 33-135 83-2 5 1 11 6 14 6 2 12-1 14-6 17-42 63-70 115-70 52 0 98 28 115 70 2 5 8 8 14 6 5-3 8-9 6-14-21-50-75-83-135-83z"/>
<glyph glyph-name="face-zajimave" unicode="&#57442;" d="M256 421c-96 0-174-78-174-174 0-96 78-174 174-174 96 0 174 78 174 174 0 96-78 174-174 174z m-58-153c-10 0-19 9-19 19 0 10 9 18 19 18 10 0 18-8 18-18 0-10-8-19-18-19z m58-131c-12 0-21 14-21 32 0 17 9 32 21 32 12 0 21-15 21-32 0-18-9-32-21-32z m58 131c-10 0-18 9-18 19 0 10 8 18 18 18 10 0 19-8 19-18 0-10-9-19-19-19z"/>
<glyph glyph-name="odevzdej" unicode="&#57443;" d="M133 261c-5-5-3-13 4-20 7-7 15-9 20-3 5 5 3 13-3 20-7 6-15 9-21 3m79-106l-7 7 93 93 7-7z m-22 22l-7 7 93 93 7-7z m-29 29l93 93 7-7-93-93z m-32 26c-11 11-12 25-2 36 11 10 25 8 35-2 11-11 11-25 1-35-10-10-24-9-34 1m81 111l7-7-55-56-7 7z m22-22l7-7-55-56-7 7z m115-66l-129 130c-3 2-10 3-13 0l-130-130c-3-3-2-10 0-13l130-129c2-3 9-4 13 0l129 129c4 4 3 11 0 13m81-16l-158-158c-3-3-6-4-10-4-3 0-7 1-10 4-2 3-4 6-4 10 0 4 2 7 4 10l148 148-147 147-1 0 0 0c-3 3-4 7-4 11 0 3 1 6 4 9l0 0c3 3 7 5 10 5 4 0 7-2 10-5l1 0 157-158c3-2 4-5 4-9 0-4-1-7-4-10m7 26l-158 158 0 0c-5 4-11 7-17 7-6 0-12-3-16-7l0 0c-5-5-7-11-7-16 0-6 2-12 7-17l10-10 131-131-141-142c-5-4-7-10-7-16 0-6 2-12 7-17 4-4 10-6 16-6 6 0 12 2 17 6l157 158c5 5 7 11 7 17 0 6-2 12-6 16"/>
<glyph glyph-name="pravydiplom" unicode="&#57444;" d="M455 187l-51 192c-4 12-14 20-26 20-1 0-2 0-2 0-2 0-4 0-6-1l-295-79c-14-4-23-19-19-33l51-192c4-15 19-23 34-19l82 22 0 17-87-24c-6-1-11 2-13 8l-51 192c-2 6 1 12 7 13l295 80c2 0 3 0 5 0 4-1 8-4 9-8l51-192c2-6-1-12-7-14l-13-3 0-17 17 5c14 3 23 18 19 33z m-82 32c3 8 1 18-6 25-6 6-16 8-24 6-4 7-13 13-22 13-9 0-18-6-22-13-8 2-18 0-24-6-7-7-9-17-6-25-8-4-13-12-13-22 0-9 5-17 13-21-3-9-1-18 6-25 4-4 8-6 13-7l0-80 17 12 16 13 16-13 17-12 0 80c5 1 10 3 13 7 7 7 9 16 6 25 8 4 14 12 14 21 0 10-6 18-14 22z m-52-50c-16 0-29 12-29 28 0 16 13 29 29 29 16 0 29-13 29-29 0-16-13-28-29-28z"/>
<glyph glyph-name="pravy-diplom-color-a" unicode="&#57445;" d="M455 187l-51 192c-4 12-14 20-26 20-1 0-2 0-2 0-2 0-4 0-6-1l-295-79c-14-4-23-19-19-33l51-192c4-15 19-23 34-19l82 22 0 17-87-24c-6-1-11 2-13 8l-51 192c-2 6 1 12 7 13l295 80c2 0 3 0 5 0 4-1 8-4 9-8l51-192c2-6-1-12-7-14l-13-3 0-17 17 5c14 3 23 18 19 33z"/>
<glyph glyph-name="pravy-diplom-color-b" unicode="&#57446;" d="M373 219c3 8 1 18-6 25-6 6-16 8-24 6-4 7-13 13-22 13-9 0-18-6-22-13-8 2-18 0-24-6-7-7-9-17-6-25-8-4-13-12-13-22 0-9 5-17 13-21-3-9-1-18 6-25 4-4 8-6 13-7l0-80 17 12 16 13 16-13 17-12 0 80c5 1 10 3 13 7 7 7 9 16 6 25 8 4 14 12 14 21 0 10-6 18-14 22z m-52-50c-16 0-29 12-29 28 0 16 13 29 29 29 16 0 29-13 29-29 0-16-13-28-29-28z"/>
<glyph glyph-name="repozitar" unicode="&#57447;" d="M98 94l0 0c0 6-5 10-10 9-9 0-11-6-11-14l0-16 39 0 0 10-15 0 0 2c0 2 2 3 4 4l11 6 0 11-12-7c-3-1-5-3-6-5z m-5-11l-9 0 0 4c0 4 2 6 5 6 4 0 4-3 4-5z m15 38l-8 0 0 17-8 0 0-17-7 1 0 16-8 0 0-27 39 0 0 27-8 0z m-7 43c0 7-4 13-12 13-5 0-12-2-12-15l0-15 39 0 0 10-15 0z m-8-7l-9 0 0 4c0 4 2 6 5 6 4 0 4-3 4-6z m3 66c-11 0-20-8-20-21 0-14 9-21 20-21 11 0 21 7 21 21 0 13-10 21-21 21z m0-32c-8 0-12 5-12 11 0 5 4 10 12 10 9 0 13-5 13-10 0-6-4-11-13-11z m-11 55l23-19 8 2 0 28-9 0 0-17-23 18-7-1 0-29 8 0z m31 29l-39 0 0-10 39 0z m-31 17l31 0 0 10-31 0 0 10-8 0 0-31 8 0z m-21 43l7-10 2 3-4 12z m52-15l-9 3 0 14 9 2 0 11-39-14 0-11 39-15 0 10z m-17 6l-13 4 0 0 13 4z m-32 33l6 8 0 4-6 8-3-2 4-8-4-8z m49 6l-15 1 0 1c0 2 2 3 4 4l11 6 0 11-12-6c-3-2-5-3-6-6l0 0c0 6-5 10-10 10-9 0-11-7-11-15l0-16 39 0z m-23 0l-9 0 0 4c0 5 2 6 5 6 4 0 4-3 4-5z m182-127c60 48 49 113 29 151 21-78-20-124-58-151 54-49 83-109 98-163 14-1 26 0 39 0-33 106-108 163-108 163z m43 0c48 59 26 120 11 151 24-87-16-130-40-151 55-47 92-109 108-163 14-1 38 0 51 0-35 87-93 138-130 163z m-86 0c44 28 81 89 47 151l-139 0c83-7 109-125 3-151 0 0 62-27 70-163l116 0c0 0-23 100-97 163z"/>
<glyph glyph-name="theses" unicode="&#57448;" d="M283 217c4 2 7 4 9 5 0 0 0 0 0 0l137 200c2 2-1 6-4 5l-205-116-137-203c-2-3 0-8 4-5 27 14 99 53 145 82l1 1 1-2c3-3 8-12 11-18-20-13-34-21-34-21l-2-1 1-2c4-8 7-15 11-21 3-5 8-9 15-9 8 0 18 5 34 16 8-17 14-29 19-38 3-4 5-8 6-10 1-1 2-2 3-3 0-1 1-1 2-2 1 0 3 1 3 2 0 0 0 1 0 1 0 5-6 21-20 51 9-17 17-30 22-39 4-6 6-9 8-12 1-1 2-3 3-3 1-1 1-2 3-2 0 0 0 0 0 0 1 0 2 1 2 2 1 0 1 1 1 1 0 4-3 11-9 23-5 11-13 27-23 46 30 24 67 58 96 95 4 4 5 8 5 13-1 18-24 31-24 31l-2 1-55-79c-3-2-31-20-40-26-4 6-8 14-10 20l-1 2 5 2c5 4 13 9 19 13z m-24-15l-2-1c-8-5-12-8-22-14l-2-1 0 2c-9 15-13 29-13 40 0 22 14 34 25 34 10 0 19-8 19-29 0-7-1-16-4-26z"/>
<glyph glyph-name="sipka-svisle-paralel" unicode="&#57436;" d="M128 73l92 0-1 197 46 0-91 96-92-96 46 0z m256 270l-91 0 0-197-46 0 91-96 92 96-46 0z"/>
<glyph glyph-name="postava" unicode="&#116;" d="M256 315c32 0 58 26 58 59 0 32-26 58-58 58-32 0-59-26-59-58 0-33 27-59 59-59z m54-14c-10-16-30-27-53-27-23 0-43 11-52 27l-1 0 0 0c-34 0-67-20-67-80 0 0 0-103 0-119 0-17 16-29 27-29 12 0 172 0 184 0 11 0 27 12 27 29 0 16 0 119 0 119 0 59-32 79-65 80z"/>
<glyph glyph-name="postavy" unicode="&#118;" d="M350 323c27 0 48 22 48 48 0 27-21 49-48 49-27 0-48-22-48-49 0-26 21-48 48-48z m-167-11c32 0 57 25 57 57 0 32-25 58-57 58-32 0-58-26-58-58 0-32 26-57 58-57z m53-15c-10-15-29-26-52-26-23 0-42 11-51 26l-1 0 0 0c-33 0-66-19-66-78 0 0 0-101 0-118 0-16 15-28 27-28 11 0 169 0 180 0 12 0 27 12 27 28 0 17 0 118 0 118 0 58-32 78-64 78z m158 14c-8-13-24-22-43-22-19 0-35 9-43 22l-1 0c-11 0-23-3-32-10 20-11 39-34 39-82l0-96c43 0 105 0 112 0 9 0 22 10 22 24 0 13 0 98 0 98 0 49-26 66-54 66z"/>
<glyph glyph-name="skupina" unicode="&#117;" d="M257 315c32 0 58 26 58 58 0 32-26 58-58 58-32 0-58-26-58-58 0-32 26-58 58-58z m142-8c26 0 47 21 47 46 0 26-21 47-47 47-25 0-46-21-46-47 0-25 21-46 46-46z m-287 0c26 0 47 21 47 46 0 26-21 47-47 47-25 0-46-21-46-47 0-25 21-46 46-46z m330-12c-8-12-23-21-42-21-7 0-13 2-19 4 7-14 12-32 12-57l0-107c36 0 74 0 79 0 9 0 22 10 22 23 0 13 0 95 0 95 0 47-26 63-52 63z m-101-2c-4 2-9 4-14 5 0 1-1 1-1 1-5 1-11 2-16 2-9-16-29-26-52-26-17 0-32 6-43 15-3 3-6 7-9 11l-1 0 0 0c-3 0-7 0-10-1-2 0-3 0-4-1-2 0-4-1-6-1-4-1-9-3-13-5-19-11-33-33-33-72 0 0 0-75 0-107 0-5 0-9 0-11 0-2 1-4 1-6 1-4 3-7 5-10 2-3 5-6 8-8 4-3 9-4 13-4 12 0 171 0 182 0 12 0 27 11 27 28 0 2 0 6 0 11 0 32 0 107 0 107 0 40-14 62-34 72z m-220-72c0 24 5 43 13 58-6-3-13-5-21-5-18 0-33 9-41 21l-1 0 0 0c-26 0-53-15-53-63 0 0 0-82 0-95 0-13 13-23 22-23 5 0 44 0 81 0z"/>
<glyph glyph-name="bublina" unicode="&#109;" d="M381 310c-9 10-21 20-34 27 0 1 0 1-1 1-4 2-8 5-12 7-1 0-2 0-2 1-4 2-8 3-13 5-1 1-2 1-4 1-3 2-7 3-10 4-3 1-6 1-8 2-3 1-6 1-8 2-6 1-11 2-17 2-5 1-10 1-15 1-1 0-2 0-3 0-3 0-6 0-10 0-2 0-4 0-6 0-4 0-7-1-11-1-2-1-3-1-4-1-5-1-10-2-15-3-2-1-3-1-5-1-3-1-7-2-10-4-2 0-4-1-5-2-3-1-6-2-9-3-2-1-3-2-5-3-3-1-5-2-8-4-2-1-4-2-5-3-3-1-5-3-7-4-2-2-4-3-5-4-3-2-5-3-7-5-1-1-3-3-5-4-1-2-3-4-5-6-2-1-3-3-5-4-1-2-3-4-5-6-1-2-2-3-4-5-1-2-3-4-4-7-1-1-2-3-3-5-2-2-3-4-4-7-1-2-2-3-3-5-1-3-2-5-3-8-1-2-2-3-2-5-1-3-2-6-3-9 0-2-1-3-1-5-1-4-2-9-3-14-5-48 17-93 54-124 0 0-48-52-48-52l107 21c11-3 23-6 35-7 3 0 7-1 10-1 1 0 3 0 4 0 2 0 4 0 7 0 4 0 9 0 13 0 1 1 2 1 3 1 4 0 7 1 10 1 2 0 3 1 5 1 3 0 6 1 9 2 1 0 3 0 4 1 4 1 8 2 11 3 2 1 4 1 6 2 2 1 4 2 6 2 2 1 4 2 6 3 1 1 3 1 4 2 4 2 9 4 12 7 1 0 2 1 3 1 2 2 5 3 7 5 1 1 2 1 2 2 8 5 15 11 21 18 0 0 0 0 1 1 2 2 4 4 6 7 16 19 27 43 30 69 4 41-11 80-39 110z"/>
<glyph glyph-name="sipka-diagonal-rozbalit" unicode="&#50;" d="M258 292l52-52 66 65 26-26 0 105-105 0 27-26z m-4-108l-52 53-66-66-26 26 0-106 105 0-26 28z"/>
<glyph glyph-name="rozbalit" unicode="&#57449;" d="M402 256l-146-146-146 146z"/>
<glyph glyph-name="sbalit" unicode="&#57450;" d="M110 110l147 146 146-146z"/>
<glyph glyph-name="fmgr-odp" unicode="&#57451;" d="M421 475l-330 0c-30 0-54-24-54-54l0-330c0-30 24-54 54-54l330 0c30 0 54 24 54 54l0 330c0 30-24 54-54 54z m-40-339c0-4-3-7-7-7 0 0-31-1-43-1-9 0-18 0-26 2-23 6-6 29-4 33 8 12 2 27-7 34-6 5-12 8-19 7-9 0-17-3-24-10-8-9-11-23-3-34 2-2 3-5 5-8 4-7 2-14-5-18-7-4-14-5-21-5-8 0-55 1-55 1-4 0-7 3-7 6 0 0 0 51 0 55 1 15-5 22-6 23-3 5-9 6-15 4-3-1-5-3-7-5-10-6-20-7-31-1-9 5-13 14-14 24-2 15 11 31 26 32 12 2 20-6 24-9 6-4 13-2 17 4 5 6 7 12 7 20 0 5-2 56-2 56 0 3 3 6 6 6 0 0 46 1 55 1 8 0 15 1 22 5 4 2 6 4 8 8 1 4 0 7-2 10-2 3-2 4-2 4-2 3-7 8-7 19 0 10 5 27 29 28 15 0 26-5 31-20 2-7 0-16-3-22-1-3-3-6-5-9-5-7-3-14 5-18 7-4 15-5 22-5 3 0 53-1 53-1 4 0 7-3 7-6 0 0 0-38 0-59 0-6-1-12-6-18-4-5-11-6-17-3-4 3-7 4-10 6-7 4-13 4-20 2-10-3-17-10-20-20-3-11-1-20 6-28 4-7 12-11 20-12 6 0 12 3 12 3 3 2 14 10 23 8 10-1 13-19 13-26 0-16-3-56-3-56z"/>
<glyph glyph-name="cloud" unicode="&#86;" d="M428 220c-3 0-6 0-9 0-6 51-46 90-94 90-12 0-24-2-35-7-17 24-44 40-74 40-49 0-89-41-95-94-7 3-14 4-22 4-45 0-81-40-81-90 0-50 36-90 81-90 37 0 304 0 329 0 36 0 66 33 66 74 0 40-30 73-66 73z"/>
<glyph glyph-name="heart" unicode="&#65;" d="M411 283c0 0 0-1 0-1l0 0c0 56-37 84-81 84-33 0-61-19-74-47-13 28-41 46-74 46-44 0-81-27-81-83l0 0c0 0 0 1 0 1 0 0 0 1 0 1 0-2 0-2 0-4 0-104 155-207 155-207 0 0 155 104 155 208 0 1 0 1 0 3 0 0 0-1 0-1z"/>
<glyph glyph-name="kopirovat" unicode="&#57353;" d="M247 274c5 0 9 4 9 9l0 110c0 3 1 9 2 9l-27 0-103-102 0-27c0 1 6 1 9 1l110 0z m128 128l-92 0c-5 0-9-4-9-9l0-110c0-15-12-27-27-27l-110 0c-5 0-9-4-9-9l0-110c0-5 4-9 9-9l238 0c5 0 9 4 9 9l0 256c0 5-4 9-9 9z m-238-292c-3 0-9 0-9 1l0-29c0-5 4-9 9-9l238 0c5 0 9 4 9 9l0 29c0-1-6-1-9-1z"/>
<glyph glyph-name="link" unicode="&#57388;" d="M382 358c-34 34-88 35-123 3l0 0-45-45c-8-8-14-17-18-27-9-4-17-9-24-16l0 1-45-45c-35-35-35-91 0-126 34-35 91-35 125 0l45 45 0 0c7 7 12 15 15 24 10 4 20 11 28 19l45 45 0 0c31 35 30 88-3 122z m-160-223c-18-18-46-18-63 0-18 17-18 46 0 63l32 33c4-15 12-29 23-40 12-12 26-20 41-23z m24 88c-8 8-12 18-13 28 11 0 21-5 29-13 8-8 12-18 13-28-10 0-21 5-29 13z m106 42l-2-2-33-33c-4 15-12 29-23 40-12 12-26 19-40 23l32 33 0 0 3 3 0 0c18 15 44 14 61-3 16-16 17-43 2-60z"/>
<glyph glyph-name="ocr" unicode="&#57402;" d="M375 402l-238 0c-5 0-9-4-9-9l0-311c0-5 4-9 9-9l238 0c5 0 9 4 9 9l0 311c0 5-4 9-9 9z m-143-227l-10 34-35 0-9-34-29 0 38 133 37 0 38-133z m95-2c-10 0-20 4-26 15l-1 0-1-13-23 0c0 6 0 18 0 29l0 111 28 0 0-55 0 0c6 8 15 14 27 14 22 0 38-19 37-49 0-35-20-52-41-52z m-6 78c-8 0-15-6-16-15-1-2-1-4-1-6l0-14c0-2 0-4 1-5 1-8 8-14 16-14 12 0 19 9 19 27 0 15-6 27-19 27z m-117 35l0 0c-2-8-4-18-6-26l-7-28 27 0-7 28c-3 8-5 18-7 26z"/>
<glyph glyph-name="oko" unicode="&#57390;" d="M256 287c-93 0-156-80-183-110 27-29 90-109 183-109 93 0 156 80 183 109-27 30-90 110-183 110z m0-170c-34 0-62 27-62 60 0 34 28 61 62 61 34 0 62-27 62-61 0-33-28-60-62-60z"/>
<glyph glyph-name="popelnice" unicode="&#57393;" d="M128 329l256 0 0-256-256 0z m183 55l0 37-110 0 0-37-110 0 0-37 330 0 0 37z"/>
<glyph glyph-name="prava" unicode="&#57392;" d="M122 187c-34 0-62-27-62-61 0-34 28-62 62-62 34 0 61 28 61 62 0 34-27 61-61 61z m132-20c-34 0-61 28-61 61 0 34 27 62 61 62 34 0 62-28 62-62 0-33-28-61-62-61z m0 88c-15 0-27-12-27-27 0-14 12-26 27-26 15 0 27 12 27 26 0 15-12 27-27 27z m131 10c-34 0-62 28-62 62 0 34 28 62 62 62 34 0 61-28 61-62 0-34-27-62-61-62z m0 89c-15 0-27-12-27-27 0-15 12-27 27-27 15 0 27 12 27 27 0 15-12 27-27 27z"/>
<glyph glyph-name="presunout" unicode="&#57409;" d="M192 274c5 0 9 4 9 9l0 110c0 3 1 9 2 9l-27 0-103-102 0-27c0 1 6 1 9 1l110 0z m128 128l-91 0c-5 0-10-4-10-9l0-110c0-15-12-27-27-27l-110 0c-5 0-9-4-9-9l0-165c0-5 4-9 9-9l238 0c5 0 9 4 9 9l0 311c0 5-4 9-9 9z m25-92l106 76 11-15-106-76z m0-45l106 75 11-15-106-75z m0-46l106 76 11-15-106-76z"/>
<glyph glyph-name="pridat-slozku" unicode="&#57400;" d="M129 293l255 0 0 18c0 10-8 18-18 18l-184 0c-10 0-23 1-28 6-5 4-7 9-7 16 0 6-2 15-17 15l-54 0c-11 0-21-11-21-21l0-190 30 107c5 17 25 31 44 31z m340-183l-67 0 0 67c0 3-3 6-7 6l-23 0c-4 0-6-3-6-6l0-67-67 0c-3 0-6-3-6-7l0-23c0-4 2-7 6-7 0 0 0 0 0 0l67 0 0-66c0-4 2-7 6-7l23 0c4 0 7 3 7 7l0 66 67 0c3 0 6 3 6 7l0 23c0 4-3 7-6 7z m-195-30l0 23c0 14 12 25 25 25l48 0 0 49c0 13 11 24 25 24l23 0c10 0 18-5 22-13l20 72c0 0 0 1 0 2 0 2 0 4-1 5 0 1-1 2-1 3-2 2-6 4-11 4l-295 0c-11 0-23-8-26-17l-48-167c-1-3 0-11 3-13 1-2 4-3 7-4 1 0 2 0 3 0l207 0c0 0-1 5-1 7z"/>
<glyph glyph-name="pridat-soubor" unicode="&#57410;" d="M91 274l110 0c5 0 9 4 9 9l0 110c0 3 1 9 2 9l-27 0-103-102 0-27c0 1 6 1 9 1z m286-56l-19 20-69-73 31 0 0-92 73 0 0 92 33 0z m-88-72c-7 0-14 5-17 11-3 7-1 15 4 20l62 66 0 150c0 5-4 9-9 9l-91 0c-5 0-9-4-9-9l0-110c0-15-13-27-28-27l-110 0c-5 0-9-4-9-9l0-165c0-5 4-9 9-9l211 0 0 73z"/>
<glyph glyph-name="sdilet" unicode="&#57394;" d="M373 175c-20 13-45 11-63-3l-94 61c4 11 5 22 2 33l92 60c18-14 43-16 63-3 26 16 33 50 17 76-17 25-51 33-76 16-20-13-29-37-24-59l-92-59c-18 14-43 16-63 3-26-17-33-51-17-76 16-25 49-32 74-18l98-64c-5-22 4-46 24-59 25-17 59-10 76 16 16 26 9 60-17 76z"/>
<glyph glyph-name="soubor-otevrit" unicode="&#57395;" d="M247 274c5 0 9 4 9 9l0 110c0 3 1 9 2 9l-27 0-103-102 0-27c0 1 6 1 9 1l110 0z m128 128l-92 0c-5 0-9-4-9-9l0-110c0-15-12-27-27-27l-110 0c-5 0-9-4-9-9l0-165c0-5 4-9 9-9l238 0c5 0 9 4 9 9l0 311c0 5-4 9-9 9z"/>
<glyph glyph-name="soubor-stahnout" unicode="&#57414;" d="M201 274c5 0 9 4 9 9l0 110c0 3 1 9 2 9l-27 0-103-102 0-27c0 1 6 1 9 1z m192-128l0 92-73 0 0-92-31 0 49-53 19-20 69 73z m-118-12c-4 5-6 13-3 20 3 6 10 11 17 11l13 0 0 73c0 10 8 18 18 18l18 0 0 137c0 5-4 9-9 9l-91 0c-5 0-9-4-9-9l0-110c0-15-13-27-28-27l-110 0c-5 0-9-4-9-9l0-165c0-5 4-9 9-9l238 0c1 0 2 0 2 1z"/>
<glyph glyph-name="vejce" unicode="&#57404;" d="M189 397c-66 0-125-104-125-186 0-79 56-143 125-143 70 0 126 64 126 143 0 82-59 186-126 186z m170-44c-19 0-38-14-53-35 17-33 27-72 27-107 0-30-8-58-20-82 13-10 29-16 46-16 49 0 89 46 89 103 0 60-43 137-89 137z"/>
<glyph glyph-name="vepsat-soubor" unicode="&#57413;" d="M219 274c5 0 10 4 10 9l0 110c0 3 0 9 1 9l-27 0-102-102 0-27c0 1 6 1 9 1z m55-201l73 0c5 0 10 4 10 9l0 53z m60 149l-118-88c-7-5-16-18-18-27l-2-6-4-28 0 0 27 0 5 0 0 0c3 0 6-1 10 0 8 2 16 5 21 9l117 87 0 0-15 22z m59 29c-2 3-6 4-10 4-2 0-5 0-7-2l-21-16 38-52 22 16c5 4 7 11 3 16z m-63-10l14 11 13 9 0 132c0 5-5 9-10 9l-91 0c-5 0-9-4-9-9l0-110c0-15-12-27-28-27l-109 0c-5 0-9-4-9-9l0-165c0-5 4-9 9-9l64 0 0 3 4 28 1 0 0 1 1 7c4 13 14 29 25 37l118 88 7 4z"/>
<glyph glyph-name="video-stahnout" unicode="&#57418;" d="M357 259l0 49c0 11-10 21-22 21l-231 0c-12 0-22-10-22-21l0-52 57 0c10 0 16-8 16-18l0-73 15 0c7 0 14-5 17-11 3-7 1-15-4-20l-57-61 209 0c12 0 22 10 22 22l0 55 109-54 0 216z m-275-21l-18 0 0-92-31 0 49-53 19-20 69 73-33 0 0 92z"/>
<glyph glyph-name="zip" unicode="&#57411;" d="M103 105l94 0 0-32-142 0 0 22 91 162-91 0 0 32 140 0 0-20z m167-31l-41 0 0 216 41 0z m83 75l0-75-41 0 0 216 78 0c24 0 42-6 56-18 13-12 20-28 20-48 0-20-7-45-20-57-14-12-32-18-56-18l-37 0z m0 31l37 0c12 0 20 4 26 10 6 6 9 24 9 34 0 10-3 18-9 24-5 7-14 10-26 10l-37 0z"/>
<glyph glyph-name="odpovednik-kontrola" unicode="&#53;" d="M491 185l-30 30c0 0 0 0-1 0 0 1-1 1-2 2 0 0-1 0-1 0-1 0-2 0-3 0 0 0-1 0-2 0 0 0-1 0-1 0-1-1-2-2-3-2l-84-85-23-23c-2-2-4-3-7-3-2 0-4 1-6 3l-24 23c-1 2-4 3-6 3-2 0-5-1-6-3l-30-30c-4-3-4-9 0-13l58-57c3-3 8-8 10-10 1-1 2-1 3-2 0 0 1 0 1 0 1 1 2 1 3 1 0 0 0 0 1 0 1 1 2 2 3 3l150 150c4 3 4 9 0 13z m-256-22c8 1 16-3 22-8 6-4 10-10 12-16l7 7c6 6 14 9 22 9 8 0 16-3 22-9l14-15 29 29c-2 9-6 19-14 20-11 2-23-8-27-10 0 0-7-3-15-3-9 1-18 6-24 13-7 10-10 21-6 34 4 12 11 20 24 24 8 2 15 2 23-3 4-2 8-4 11-6 8-5 16-4 22 3 5 6 6 14 6 21 0 25 0 70 0 70 0 4-4 7-8 7 0 0-59 1-62 1-10 0-19 1-27 6-9 5-11 13-6 22 2 3 4 6 6 10 4 7 6 18 3 26-5 17-18 24-36 23-28 0-34-21-34-33 0-13 6-19 8-22 0 0 0-1 3-5 2-4 3-7 1-12-2-4-4-7-8-9-9-4-18-6-27-6-11 0-64-1-64-1-5 0-8-3-8-7 0 0 2-61 2-67 0-9-3-16-7-24-5-7-13-8-21-4-5 3-15 13-29 11-18-2-32-20-31-38 2-12 7-22 18-29 12-7 24-5 36 2 2 2 5 4 8 5 7 4 14 2 19-4 1-2 8-10 7-28 0-4 0-64 0-64 0-4 3-8 7-8 0 0 56 0 65-1 9 0 17 2 25 6 8 5 11 14 6 22-1 3-4 6-6 9-8 13-5 29 5 40 7 9 16 12 27 12z"/>
<glyph glyph-name="odpovednik-stahnout" unicode="&#57;" d="M457 100l0 118c0 5-4 9-9 9l-46 0c-5 0-13 0-18 0l-4 0c-1 0-2 0-3 0-2-1-4-3-5-5-1-1-1-3-1-4l0-118c0 0-27 0-30 0-4 0-4-3 0-6l7-9c2-1 3-3 5-4 1-1 2-2 2-3 2-2 4-4 6-6l26-28c3-3 9-9 12-13l9-10c0 0 0 0 0 0 1-1 2-2 3-2 0 0 1 0 1 0 1 0 2-1 2-1 1 0 2 1 3 1 0 0 0 0 1 0 1 0 2 1 3 2l69 73c3 3 2 6-3 6l-30 0z m-132-21c-8 9-11 20-7 29 4 9 13 14 23 14l8 0 0 53c-2 2-4 4-7 5-12 2-24-8-28-10 0 0-7-3-14-3-10 1-19 6-24 13-8 10-11 21-7 34 4 12 12 20 24 24 8 2 16 1 23-3 4-2 8-4 12-6 7-5 15-4 21 3 5 6 6 14 6 21 0 25 0 70 0 70 0 4-3 7-8 7 0 0-59 1-62 1-9 0-18 1-27 6-9 5-11 13-6 22 2 3 5 6 7 10 3 7 5 18 3 26-6 17-19 24-37 23-28 0-34-21-34-33 0-13 6-19 8-22 0 0 1-1 3-5 2-4 3-7 1-12-1-4-4-7-8-9-8-4-18-6-27-6-11 0-64-1-64-1-4 0-8-3-8-7 0 0 2-61 2-67 0-9-2-16-7-24-5-7-13-8-20-4-6 3-15 13-30 11-17-2-32-20-30-38 1-12 7-22 17-29 12-7 24-5 36 2 3 2 5 4 8 5 7 4 15 2 19-4 1-2 8-10 7-28 0-4 0-64 0-64 0-4 4-8 8-8 0 0 56 0 65-1 8 0 17 2 24 6 9 5 12 14 7 22-2 3-4 6-6 9-9 13-6 29 4 40 7 9 17 12 27 12 9 1 16-3 23-8 11-8 18-26 9-41-3-4-24-31 5-39 9-2 20-2 30-2 8 0 23 1 35 1z"/>
<glyph glyph-name="odpovednik-upravit" unicode="&#58;" d="M512 117l0 17c0 7-6 13-14 13l-15 0c-2 6-4 12-7 18l11 11c1 1 2 2 3 4 0 2 1 3 1 5 0 4-2 7-4 10l-12 12c-2 1-3 2-5 3-1 0-3 1-5 1-2 0-3-1-5-1-2-1-3-2-4-3l-12-12c-5 3-11 6-17 8l0 15c0 6-3 11-8 13-2 1-4 1-5 1l-17 0c-6 0-11-3-13-8 0-2-1-4-1-6l0-16c-6-2-11-4-17-7l-11 12c-1 1-3 2-4 2-2 1-4 2-6 2-3 0-7-2-10-4l-11-12c-2-1-2-3-3-4 0-1 0-2-1-2 0-1 0-2 0-2 0-1 0-2 0-3 0-1 0-1 0-1 0-2 1-3 1-4 1-1 2-2 3-3l11-12c-2-5-4-10-6-15 0-1 0-1-1-2l-16 0c-2 0-4 0-5-1-5-2-9-7-9-12l0-17c0-6 4-11 9-13 1 0 3-1 5-1l16 0c2-6 4-11 7-17l-11-11c-1 0-1-1-1-1-2-3-3-6-3-9 0-1 0-1 0-1 0-2 0-3 1-4 0-2 1-3 3-4l11-12c3-3 7-4 10-4 2 0 3 0 5 1 2 0 3 1 5 3l11 11c6-3 11-5 17-7l0-16c0-8 6-14 14-14l16 0c8 0 14 6 14 14l0 16c6 1 12 4 17 7l12-11c1-2 2-3 4-3 2-1 3-1 5-1 2 0 4 0 5 1 2 0 3 1 5 3l12 11c2 3 4 7 4 10 0 4-2 7-4 10l-11 11c3 5 5 11 7 17l15 0c8 0 14 6 14 14z m-76-22c-4-4-9-7-14-9-5-2-10-4-16-4-12 0-23 5-31 13-7 8-12 18-12 30 0 3 0 6 1 9 1 5 3 10 6 15 2 2 4 4 5 6 8 8 19 13 31 13 6 0 11-1 16-3 5-3 10-6 14-10 2-2 4-4 5-6 3-5 5-10 7-15 0-3 0-6 0-9 0-12-4-22-12-30z m-134-12c-1 0-3 0-4 1-13 6-22 19-22 33l0 17c0 14 9 27 22 32 1 1 3 1 4 2 0 0 0 1 0 1-3 0-8-2-13-2-10 1-18 6-24 13-7 10-11 21-7 34 4 12 12 20 24 24 8 2 16 1 23-3 4-2 8-4 12-6 3-2 5-3 8-3 4 3 8 5 13 6 0 0 0 0 0 0 5 6 7 14 7 21 0 25-1 69-1 69 0 5-3 8-7 8 0 0-59 1-63 1-9 0-18 1-26 6-9 5-12 13-6 22 2 3 4 6 6 10 3 7 6 18 3 26-5 17-19 24-37 23-28 0-33-21-33-33 0-13 5-19 8-22 0 0 0-1 2-5 3-4 4-7 2-12-2-4-5-7-9-9-8-4-17-6-26-6-11 0-65-1-65-1-4 0-8-3-7-7 0 0 2-61 2-67 0-9-3-16-8-24-4-7-13-8-20-4-5 3-15 13-29 11-18-2-33-20-31-38 1-12 7-22 18-29 12-7 24-5 35 2 3 2 6 4 9 5 7 4 14 2 18-4 1-2 8-10 8-28-1-4-1-64-1-64 0-4 4-8 8-8 0 0 56 0 65-1 9 0 17 2 25 6 8 5 11 14 6 22-2 3-4 6-6 9-9 13-6 29 4 40 8 9 17 12 28 12 8 1 15-3 22-8 11-8 18-26 9-41-2-4-23-31 5-39 10-2 20-2 30-2 4 0 10 0 16 1 1 3 2 6 3 9z"/>
<glyph glyph-name="zobrazeni-ikony" unicode="&#107;" d="M210 251l-86 0c-13 0-23 10-23 23l0 86c0 13 10 24 23 24l86 0c13 0 24-11 24-24l0-86c0-13-11-23-24-23z m-65 44l44 0 0 45-44 0z m243-44l-86 0c-13 0-24 10-24 23l0 86c0 13 11 24 24 24l86 0c13 0 23-11 23-24l0-86c0-13-10-23-23-23z m-65 44l44 0 0 45-44 0z m65-222l-86 0c-13 0-24 11-24 24l0 86c0 13 11 23 24 23l86 0c13 0 23-10 23-23l0-86c0-13-10-24-23-24z m-65 45l44 0 0 44-44 0z m-113-45l-86 0c-13 0-23 11-23 24l0 86c0 13 10 23 23 23l86 0c13 0 24-10 24-23l0-86c0-13-11-24-24-24z m-65 45l44 0 0 44-44 0z"/>
<glyph glyph-name="pridat" unicode="&#55;" d="M379 361c-68 67-178 67-246 0-68-68-68-178 0-246 68-68 178-68 246 0 68 68 68 178 0 246z m-41-144l-61 0 0-62c0-4-4-8-8-8l-26 0c-4 0-8 4-8 8l0 62-61 0c-5 0-8 4-8 8l0 25c0 5 3 9 8 9l61 0 0 61c0 4 4 8 8 8l26 0c4 0 8-4 8-8l0-61 61 0c5 0 8-4 8-8l0-26c0-4-3-8-8-8z"/>
<glyph glyph-name="pricetag-multiple" unicode="&#66;" d="M251 382l-16 7-47 22-86-47-11-69 122-223 160 87z m-61-45c-3-10-12-16-21-16-2 0-5 0-7 1-4 1-7 4-10 7-1 1-1 1-2 2-1 2-1 3-2 4 0 1-1 3-1 4 0 1-1 2-1 3 0 3 0 5 1 8 1 3 2 5 4 7 0 1 1 1 2 2 1 1 2 2 4 3 1 1 2 1 2 2 2 0 4 1 5 1 1 0 2 1 3 1 1 0 1 0 2 0 2 0 4 0 6-1 12-3 19-16 15-28z m118 28l-38 18 118-216 8-15-15-8-123-67 12-22 160 87z"/>
<glyph glyph-name="soubor-identifikovat" unicode="&#57423;" d="M219 276c5 0 10 4 10 9l0 110c0 3 0 6 1 9l-27 0-102-102 0-28c2 1 5 2 9 2z m109-214c-9 0-17-2-21-7-5-4-8-11-8-20 0-9 3-16 8-21 5-4 12-7 21-7 8 0 15 3 20 8 5 4 8 11 8 20 0 8-3 15-8 20-5 5-12 7-20 7z m59 162c-4 3-8 6-13 8-1 0-1 1-2 1-5 2-10 3-15 5-7 1-13 2-20 2-24 0-46-6-68-17-4-2-5-6-3-11l11-21c2-4 5-5 7-5 2 0 3 0 4 1 17 8 32 12 45 12 8 0 15-2 19-5 2-1 4-3 5-5 0-1 0-2 1-3 0-1 1-3 1-6 0-2 0-4-1-6-1-3-2-6-4-9-3-4-10-10-20-18-11-8-19-16-24-23-4-7-6-16-6-26l0-7c0-6 4-6 7-6l30 0c5 0 7 3 7 6l0 5c0 5 1 10 3 13 2 3 6 6 11 10 0 1 0 1 0 1 2 1 5 3 7 5 15 10 24 20 30 28 5 8 7 18 7 30 0 17-6 31-19 41z m-105-135l0 1 0 8c0 14 3 26 9 37 6 10 16 20 30 30 8 6 12 10 14 12-1 0-1 0-2 0-10 0-22-4-35-10-4-2-9-3-14-3-10 0-20 6-26 15l0 1-1 1-11 22 0 0 0 0c-7 16-1 33 14 40 25 12 51 19 77 19 7 0 13-1 20-2l0 135c0 5-5 9-10 9l-91 0c-5 0-9-4-9-9l0-110c0-15-12-27-28-27l-109 0c-5 0-9-4-9-9l0-165c0-5 4-9 9-9l177 0c-2 4-5 9-5 14z"/>
<glyph glyph-name="nastroje" unicode="&#94;" d="M378 313c-9-9-21-14-33-14-12 0-23 5-32 14-18 18-18 47 0 64l76 76c-14 6-29 9-45 9-66 0-119-52-119-118 0-13 2-25 6-37 0 0 0 0 0 0l-165-164c-22-21-22-56 0-77 10-11 25-16 39-16 14 0 28 5 39 16l165 164c0 0 1 1 1 1 11-3 22-5 34-5 65 0 118 53 118 118 0 16-3 31-8 44z m-275-236c-15 0-27 12-27 27 0 15 12 27 27 27 15 0 27-12 27-27 0-15-12-27-27-27z"/>
<glyph glyph-name="soubor-export" unicode="&#43;" d="M192 274c5 0 9 4 9 9l0 110c0 3 1 9 2 9l-27 0-103-102 0-27c0 1 6 1 9 1l110 0z m82-183c-12 0-22 10-22 22l0 73c0 13 10 22 22 22l55 0 0 185c0 5-4 9-9 9l-91 0c-5 0-10-4-10-9l0-110c0-15-12-27-27-27l-110 0c-5 0-9-4-9-9l0-165c0-5 4-9 9-9l238 0c5 0 9 4 9 9l0 9z m145 41l20 18-73 69 0-33-92 0 0-73 92 0 0-31z"/>
<glyph glyph-name="soubor-import" unicode="&#57386;" d="M201 274c5 0 9 4 9 9l0 110c0 3 1 9 2 9l-27 0-103-102 0-27c0 1 6 1 9 1l110 0z m229 61l0 18-92 0 0 31-53-49-20-19 73-69 0 33 92 0z m-107-104l-73 69c-4 5-7 10-7 16 0 6 3 12 7 16l20 19 53 49c1 1 3 2 4 2l-89 0c-5 0-9-4-9-9l0-110c0-15-13-27-28-27l-110 0c-5 0-9-4-9-9l0-165c0-5 4-9 9-9l238 0c5 0 9 4 9 9l0 143c-5 0-11 2-15 6z"/>
<glyph glyph-name="soubor-import-export" unicode="&#57391;" d="M192 274c5 0 9 4 9 9l0 110c0 3 1 9 2 9l-27 0-103-102 0-27c0 1 6 1 9 1l110 0z m64 42l73-69 0 33 92 0 0 73-92 0 0 31-53-49z m163-184l20 18-73 69 0-33-92 0 0-73 92 0 0-31z m-145-41c-12 0-22 10-22 22l0 73c0 13 10 22 22 22l55 0 0 17c-5 0-11 2-15 6l-73 69c-5 5-7 10-7 16 0 6 3 12 7 16l20 19 53 49c1 1 3 2 4 2l-89 0c-5 0-10-4-10-9l0-110c0-15-12-27-27-27l-110 0c-5 0-9-4-9-9l0-165c0-5 4-9 9-9l238 0c5 0 9 4 9 9l0 9z"/>
<glyph glyph-name="elportal" unicode="&#61;" d="M429 322l-82 0c-9 0-17-7-17-16l0-108 116 0 0 108c0 9-7 16-17 16z m-166-129l2 5 49 0 0 108c0 18 15 33 33 33l25 0 0 24c0 9-8 17-17 17l-248 0c-9 0-16-8-16-17l0-148c0-9 7-17 16-17l107 0 2-5c2-7 8-11 15-11l-140 0c-14 0-25-11-25-25 0-14 11-25 25-25l227 0c-2 5-4 11-4 17l0 33-66 0c7 0 13 4 15 11z m67-44c0-9 8-17 17-17l82 0c10 0 17 8 17 17l0 33-116 0z m57 19c6 0 11-5 11-11 0-6-5-10-11-10-6 0-11 4-11 10 0 6 5 11 11 11z"/>
<glyph glyph-name="pridat-soubor-2" unicode="&#57416;" d="M210 274c5 0 9 4 9 9l0 110c0 3 1 9 2 9l-27 0-103-102 0-27c0 1 6 1 10 1l109 0z m204-164l-67 0 0 67c0 3-3 6-6 6l-24 0c-4 0-6-3-6-6l0-67-66 0c-4 0-7-3-7-7l0-23c0-1 0-2 0-3 0 0 1-1 1-2 0 0 0 0 1 0 1-1 2-2 4-2 0 0 0 0 1 0l66 0 0-66c0-4 2-7 6-7l24 0c3 0 6 3 6 7l0 66 67 0c3 0 7 3 7 7l0 23c0 4-4 7-7 7z m-169 18l48 0 0 49c0 14 10 24 24 24l24 0c2 0 4-1 6-1l0 193c0 5-4 9-9 9l-91 0c-5 0-9-4-9-9l0-110c0-15-13-27-28-27l-109 0c-5 0-10-4-10-9l0-165c0-5 5-9 10-9l119 0c0 2-1 5-1 7l0 23c0 14 11 25 26 25z"/>
<glyph glyph-name="prejmenovat" unicode="&#57397;" d="M283 146l-201 0 0 110 201 0 0 37-237 0 0-183 237 0z m-164 73l164 0 0-36-164 0z m219 110l55 0 0 18-146 0 0-18 55 0 0-256-55 0 0-18 146 0 0 18-55 0z m19-36l0-37 73 0 0-110-73 0 0-36 109 0 0 183z"/>
<glyph glyph-name="prejit-vlevo" unicode="&#57452;" d="M321 55l-147 146 147 146z"/>
<glyph glyph-name="prejit-pravo" unicode="&#57453;" d="M192 347l146-146-146-146z"/>
<glyph glyph-name="zobacek-vpravo" unicode="&#57365;" d="M195 62l-12 12 133 134-133 133 12 13 145-146z"/>
<glyph glyph-name="zobacek-vlevo" unicode="&#57385;" d="M317 354l12-13-133-133 133-134-12-12-145 146z"/>
<glyph glyph-name="zobacek-nahoru" unicode="&#57384;" d="M402 111l-12-13-134 133-134-133-12 13 146 145z"/>
<glyph glyph-name="zobacek-dolu" unicode="&#57383;" d="M110 244l12 12 134-133 134 133 12-12-146-146z"/>
<glyph glyph-name="audio" unicode="&#57376;" d="M236 243c-12-12-12-30 0-41 11-12 29-12 40 0 12 11 12 29 0 41-11 11-29 11-40 0z m146-159c76 76 76 200 0 276-1 0-1 0-1 1l0 0-8 8 0 0c-4 3-11 3-15-1l0 0c0 0 0 0 0 0 0 0 0 0 0 0l-13-13c0 0 0 0 0 0l-1-1 0 0c-3-5-3-10 0-14l0-1 1 0 7-8 0 1c0-1 0-1 0-1 61-60 61-158 1-218l0 0-7-7 0 0-1-1 0 0c-4-5-3-11 1-15l0 0 0 0c0 0 0 0 0 0l6-7c0 0 0 0 0 0l7-7c0 0 0 0 0 0l1-1 0 1c4-4 10-4 14 0l0 0 8 7c0 0 0 0 0 0 0 0 0 0 0 0z m-55 55c45 46 45 120-1 166 0 0 0 0 0 0l0 0-8 8 0 0c-5 4-11 4-15 0l0 0 0 0c0 0 0 0 0 0l0 0-13-14c0 0 0 0 0 0 0 0 0 0 0 0l-1-1 0 0c-4-4-4-10 0-14l0 0 1-1 0 0 7-7 0 0c0 0 0 0 0 0 30-30 30-78 1-108l0 0-8-7c0 0 0 0 0 0l0-1 0 0c-4-4-4-11 0-15l0 0 14-13 1-1 0 0c4-3 10-3 14 0l0 0 7 7z m-51 104c-11 11-29 11-40 0-12-12-12-30 0-41 11-12 29-12 40 0 12 11 12 29 0 41z m-53-83l0 0-1 1 0 0 0 0-7 7 0 0c0 0 0 0 0 0-30 30-30 78-1 108l0 0 8 8 0 0c4 5 4 11 0 15l0 0-15 15 0-1c-4 4-10 4-14 0l0 0-1 0-6-7-1-1 0 0c-45-46-45-120 1-166 0 0 0 0 0 0l0 0 8-8 0 0c5-4 11-3 15 1l0 0 0 0 0 0 0 0 13 13c0 0 0 0 0 0l1 1 0 0c4 4 4 10 0 14z m-55-55l0 0-1 1c0 0 0 0 0 0l-7 7 0 0c0 0 0 0 0 0-61 60-61 158-1 218l0 0 7 8 0 0c0 0 0 0 0 0l1 0 0 1c4 4 3 10-1 14l0 0-6 7-8 8 0 0c-4 3-10 3-14 0l0 0-8-8 0 0c-76-77-76-201 0-277 1 0 1 0 1 0l0 0 8-8 0 0c4-4 11-4 15 0l0 0 0 0 13 14c0 0 0 0 0 0l0 0 1 1 0 0c3 4 3 10 0 14z"/>
<glyph glyph-name="soubor-najit" unicode="&#57454;" d="M210 274c5 0 9 4 9 9l0 110c0 3 1 9 2 9l-27 0-103-102 0-27c0 1 6 1 10 1l109 0z m125-35c-48 0-87-39-87-87 0-15 5-31 13-44l5-9-25-26-21-20 0-1-9-9c-3-3-4-7-4-11 0-8 6-14 14-14 5 0 8 3 10 5l11 11 0 0 40 39 6 6 8-4c1-1 3-1 4-2 11-5 22-7 35-7 47 0 86 39 86 86 0 48-39 87-86 87z m12-146c-4-1-8-1-12-1-34 0-62 28-62 62 0 35 28 63 62 63 4 0 8-1 12-2 29-5 50-31 50-61 0-30-21-55-50-61z m-104 9c-8 15-13 33-13 50 0 58 47 105 105 105 4 0 8 0 12-1l0 137c0 5-4 9-9 9l-91 0c-5 0-9-4-9-9l0-110c0-15-13-27-28-27l-109 0c-5 0-10-4-10-9l0-165c0-5 5-9 10-9l114 0z"/>
<glyph glyph-name="soubor-info" unicode="&#57455;" d="M241 274c5 0 9 4 9 9l0 110c0 3 1 9 2 9l-28 0-102-102 0-27c0 1 6 1 9 1l110 0z m146-83l-34 0c-4 0-7-3-9-6 0-1 0-3 0-4l0-153c0-5 4-10 9-10l34 0c6 0 10 5 10 10l0 153c0 5-4 10-10 10z m-17 24c3 0 5 1 8 1 6 1 11 3 14 6 5 5 7 11 7 19 0 17-9 26-29 26-19 0-29-9-29-26 0-4 1-8 2-11 4-10 13-15 27-15z m-47 26c0 28 18 44 47 44 3 0 5 0 8 0l0 108c0 5-4 9-9 9l-92 0c-5 0-9-4-9-9l0-110c0-15-12-27-27-27l-110 0c-5 0-9-4-9-9l0-165c0-5 4-9 9-9l194 0 0 108c0 11 6 20 15 24-11 8-17 20-17 36z"/>
<glyph glyph-name="photo" unicode="&#57367;" d="M439 348c0 10-8 18-18 18-1 0-2-1-3-1l0 1-327 0 0 0c-10 0-18-8-18-18l0-259 0 0c1-9 9-16 18-16l0 0 327 0 0 1c1-1 2-1 3-1 9 0 17 7 18 16l0 0 0 259z m-37-238l-55 0c0 0-12 4-12 5l0 0-91 158 0 0c-2 4-6 7-11 7-5 0-9-3-11-8l-61-105-14 26 0 0c-1 2-4 4-6 4-3 0-5-2-6-4l-25-47 0 183 292 0z m-58 196c22 0 40-18 40-41 0-22-18-40-40-40-23 0-41 18-41 40 0 23 18 41 41 41z"/>
<glyph glyph-name="plus" unicode="&#76;" d="M383 238l-100 0 0 100c0 6-4 9-10 9l-35 0c-6 0-9-3-9-9l0-100-100 0c-5 0-10-4-10-10l0-35c0-5 4-10 9-10 1 0 1 0 1 0l100 0 0-100c0-5 3-10 9-10l35 0c6 0 10 5 10 10l0 100 100 0c6 0 10 4 10 10l0 35c0 6-4 10-10 10z"/>
<glyph glyph-name="napoveda" unicode="&#93;" d="M241 152c-14 0-25-3-32-11-8-7-12-17-12-31 0-13 4-24 12-31 7-8 18-11 32-11 13 0 24 4 32 11 7 8 11 18 11 31 0 13-4 24-11 31-8 7-19 11-32 11z m90 240c-19 15-45 23-77 23-38 0-67-6-101-24-4-2-10-8-5-18l16-33c4-8 12-9 18-6 29 13 46 18 67 18 12 0 22-3 28-7 6-5 9-11 9-19 0-8-2-15-7-21-4-7-14-16-30-27-17-12-28-24-35-35-6-11-10-25-10-40l0-8c1-5 3-12 15-12l39 0c10 0 15 5 14 13l0 4c0 8 2 15 5 20 4 5 13 13 27 23 21 15 36 29 44 42 7 12 11 27 11 44 0 26-9 47-28 63z"/>
<glyph glyph-name="barva-textu" unicode="&#57359;" d="M137 123l0 12c3 0 6 1 12 2 9 2 14 4 16 5 2 1 4 5 7 10l34 90 40 105c4 0 8 0 11 0l8 0 1-3 30-70c7-15 13-29 18-43 5-14 10-25 14-34 2-6 5-14 9-24 2-6 5-13 9-22 3-5 4-8 6-8 2-2 5-3 9-4 5 0 10-2 15-4 1-3 1-6 1-8 0-1 0-2 0-4-8 0-18 1-28 1-10 1-19 2-27 2-9 0-15-1-19-1l-29-1-9-1c0 4 1 8 1 12l19 4c5 1 9 2 10 3 1 1 1 3 1 4 0 2 0 3 0 5l-7 16-14 34-65 0c-2-6-7-19-15-40-2-6-3-10-3-12 0-3 1-5 3-7 2-2 7-3 15-4 1 0 5-1 12-2 0-4 0-7 0-9 0-1 0-2-1-4-7 0-23 1-50 3l-7-1c-8-1-16-2-24-2l-3 0z m80 96c27-1 42-1 47-1l4 0c-3 11-8 22-13 36-5 13-10 23-13 31z"/>
<glyph glyph-name="bold" unicode="&#57456;" d="M146 73l1 14c2 0 6 1 10 2 7 1 13 2 18 4 1 3 2 5 3 8 1 6 1 15 1 28l0 72c0 7-1 27-2 59 0 8 0 13-1 15-1 1-1 2-2 2-2 1-5 2-10 2-2 0-8 1-17 2l0 12 38 1 55 2 7 0c1 0 3 0 4 0 1 0 4 0 9 0l11 0c9 0 18-1 28-4 4-1 8-3 14-5 6-3 11-7 15-11 4-5 7-10 10-16 2-5 3-11 3-17 0-7-2-13-5-19-3-5-8-10-14-15-3-2-10-6-22-11 17-4 30-11 39-21 9-11 14-22 14-35 0-7-2-15-5-23-2-6-5-12-10-17-6-7-13-12-20-16-8-3-18-6-30-9-7-1-16-1-29-1l-29 0c-12 0-27 0-44-1-5-1-18-1-40-2z m80 129c4 0 9-1 16-1 17 0 29 3 38 10 9 6 13 17 13 32 0 11-4 20-12 27-8 8-21 11-38 11-4 0-11 0-19-1 0-3 0-7 1-12 0-9 1-23 1-40l-1-14c0-3 0-7 1-12z m2-108c7-3 14-5 20-5 13 0 24 2 32 6 8 4 14 10 18 17 3 7 5 15 5 26 0 11-2 20-6 26-5 9-12 15-20 18-8 4-21 5-37 5-7 0-12 0-14-1l0-21-1-26 1-39c0-1 1-4 2-6z"/>
<glyph glyph-name="dopredu" unicode="&#57457;" d="M283 248c36-9 68-29 90-57l57 26-40-107-107 39 54 25c-17 18-38 31-63 37-69 16-138-26-155-95l-37 9c22 89 112 144 201 123z"/>
<glyph glyph-name="guma" unicode="&#57458;" d="M210 331l-73-257 154 0 72 257-153 0z m14-18l115 0-31-110-115 0z"/>
<glyph glyph-name="italika" unicode="&#57459;" d="M183 79c4 1 8 2 12 3 9 1 16 3 19 5 2 1 3 2 4 5 1 2 5 14 10 36 7 29 13 60 19 92l9 50 1 10c1 3 1 5 1 7 0 3-1 5-3 6-3 2-9 4-19 4l-1-1-5 0c-2 0-4 1-7 1 0 3 1 5 2 8l20-1 33-1 29 1 13 1 0-6c-2-1-6-1-12-2-10-1-15-3-18-4-1-1-2-3-4-6-1-3-6-23-14-62l-20-95c-5-25-8-39-8-42 0-1 1-1 1-2 3-2 9-3 18-4 6-1 10-1 14-2l1-5c-1-1-2-1-3-1l-4 0c-6-1-15-1-27-1l-31 1-9 0c0 0-3 0-7 0-5-1-9-1-14-1z"/>
<glyph glyph-name="plechovka" unicode="&#57460;" d="M376 294c-40 40-98 31-117 26l-25 23 0 37c0 10-8 19-18 19l-37 0c-11 0-19-9-19-19l0-80c0-1 0-2 1-2l-65-72c-7-7-6-19 2-26l91-83c4-3 8-4 13-4 0 0 0 0 1 0 5 0 9 2 12 6l108 119c7 8 6 19-2 26l-4 4c58-14 22-141 22-141l80 0c0 0 13 111-43 167z m-204 86c0 4 3 6 7 6l37 0c3 0 6-2 6-6l0-29c-2 0-4 1-6 0-5 0-9-2-12-6l-32-34z m142-134l-108-119c-1-1-2-2-4-2-2 0-3 0-4 2l-92 82c-3 2-3 6-1 9l108 119c1 1 2 2 4 2 0 0 0 0 0 0 2 0 3 0 5-1l0-1 0-57c-7-2-12-9-12-17 0-10 8-19 18-19 10 0 19 9 19 19 0 8-6 15-13 17l0 46 79-71c3-2 3-6 1-9z"/>
<glyph glyph-name="podrzene" unicode="&#57461;" d="M150 296l10 0c2 0 4-1 6-3 1-3 2-7 2-14l0-27 0-39 0-49 0-12c0-17 2-29 6-38 3-6 9-13 17-19 8-7 18-12 32-16 7-2 19-4 36-4 10 0 21 2 32 6 11 3 19 8 26 13 6 5 11 11 15 18 3 7 6 16 8 28 1 8 2 23 2 46l-1 18 0 15-1 36c0 12-1 20-1 23 0 7 2 12 5 14 2 3 11 5 25 7l0 6-5 0-28-1c0 0-4 1-12 1-5 1-10 1-15 1-4 0-9 0-13-1 0-2 0-3 1-5 13-3 21-5 26-9 2-1 3-4 4-7 2-3 3-13 3-29l3-50c0-1 0-5 0-10-1-5-1-9-1-11l0-5c1-9 1-13 1-14 0-20-3-36-7-46-5-10-12-18-23-23-10-6-25-9-45-9-9 0-18 2-28 5-9 3-16 7-21 12-4 5-8 12-10 19-1 8-3 28-3 60l0 86 2 20c0 2 1 4 3 5 4 2 8 3 13 3 1 0 3 0 5 0 2 0 3-1 4-1 2 0 4 1 7 2 1 1 1 2 1 3 0 1-1 2-1 4l-46 0-28 0-11 0-5 0c-2 0-3-1-5-2 0 0-1-1-1-2 0-1 1-2 1-3 2-2 7-2 15-2z m-22-232l253 0 0-18-253 0z"/>
<glyph glyph-name="radek-pridat" unicode="&#57462;" d="M502 145l-81 0-2 0 0 83c0 5-4 10-9 10 0 0-1 0-1 0l-34 0c-5 0-10-5-10-10l0-83-81 0c-1 0-1 0-2-1-1 0-1 0-2 0 0 0-1-1-2-2 0 0 0 0-1 0 0-1-1-1-1-2 0 0-1-1-1-1 0-1-1-3-1-4l0-34c0-2 1-3 2-5 0 0 0 0 0 0 1-2 2-3 4-4 1 0 3-1 4-1 0 0 0 0 0 0l81 0 0-83c0-5 5-9 10-9l34 0c1 0 2 0 3 0 0 0 1 0 1 0 1 1 1 1 2 1 0 1 1 1 1 1 1 1 1 1 1 2 1 0 1 1 2 2 0 1 0 2 0 3l0 83 2 0 81 0c1 0 2 0 2 1 1 0 2 0 2 0 1 0 1 1 2 1 0 1 1 1 1 1 1 1 1 1 1 2 1 0 1 1 1 1 1 1 1 3 1 4l0 34c0 6-4 10-10 10z m-244-53l-220 0 0 73 309 0 0 18-310 0 0 73 364 0 0 0 9 0c3 0 7-1 11-2l0 112-403 0 0-293 264 0c-12 1-21 9-24 19z m-221 254l364 0 0-72-364 0z"/>
<glyph glyph-name="radek-zrusit" unicode="&#57463;" d="M489 59l-59 59 59 59c4 3 4 10 0 14l-24 24c-1 1-2 1-3 2-1 0-1 0-2 0-1 0-1 1-2 1-1 0-2-1-3-1 0 0 0 0-1 0-1-1-2-1-3-2l-50-50-9-9-57 58c-1 1-2 1-3 2-1 0-1 0-1 0-1 0-2 0-3 0-1 0-1 0-2 0-1 0-1 0-2 0-1-1-2-1-3-2l-24-25c-1 0-2-2-2-3-1-1-1-2-1-3 0-3 1-5 3-7l11-11 46-47-58-58c-4-4-4-11 0-14l24-25c2-1 4-2 6-2 0 0 1 0 1 0 0 0 1 0 1 0 1 0 2 0 3 0 1 1 2 2 3 2l58 59 59-59c2-1 4-2 6-2 0 0 1 0 1 0 3 0 5 0 7 2l24 24c4 4 4 11 0 14z m-186 33l-265 0 0 73 244 0c-4 5-6 11-6 17 0 1 0 1 0 1l-239 0 0 73 364 0 0-65 20 19 0 156-403 0 0-293 266 0z m-266 254l364 0 0-72-364 0z m355-163l0-1 1 1z"/>
<glyph glyph-name="seznam-cislovany" unicode="&#57464;" d="M411 298c0-3-2-5-5-5l-209 0c-3 0-5 2-5 5l0 26c0 3 2 5 5 5l209 0c3 0 5-2 5-5z m0-110c0-3-2-5-5-5l-209 0c-3 0-5 2-5 5l0 26c0 3 2 5 5 5l209 0c3 0 5-2 5-5z m0-109c0-3-2-6-5-6l-209 0c-3 0-5 3-5 6l0 25c0 3 2 6 5 6l209 0c3 0 5-3 5-6z m-274 195l-16 0 0 68-17 0 0 13 33 3z m18-109l-55 0 0 10 26 29c3 5 6 9 8 12 1 3 2 6 2 8 0 4-1 6-2 9-2 2-5 3-8 3-4 0-6-2-8-4-2-3-3-6-3-10l-16 0-1 0c0 7 3 14 8 19 5 5 11 7 20 7 8 0 15-2 20-6 4-4 7-10 7-18 0-5-2-9-4-13-3-4-7-10-14-17l-13-16 0-1 33 0z m-27-60c4 0 7 1 9 3 2 2 3 5 3 8 0 3-1 6-3 8-2 2-5 3-9 3-3 0-5-1-7-3-2-2-3-4-3-7l-16 0 0 1c-1 6 2 11 7 16 5 4 12 6 20 6 8 0 15-2 20-6 5-4 7-10 7-18 0-3-1-7-3-10-2-3-5-6-9-7 5-2 8-4 10-8 3-3 4-7 4-12 0-7-3-13-8-18-6-4-13-6-21-6-8 0-15 2-20 6-6 4-9 10-8 17l0 0 16 0c0-3 1-5 3-7 2-2 5-3 9-3 3 0 6 1 9 3 2 2 3 5 3 8 0 5-1 8-3 10-2 2-5 3-10 3l-9 0 0 13z"/>
<glyph glyph-name="seznam-ul" unicode="&#57465;" d="M402 298c0-3-2-5-5-5l-209 0c-3 0-5 2-5 5l0 26c0 3 2 5 5 5l209 0c3 0 5-2 5-5z m0-110c0-3-2-5-5-5l-209 0c-3 0-5 2-5 5l0 26c0 3 2 5 5 5l209 0c3 0 5-2 5-5z m0-109c0-3-2-6-5-6l-209 0c-3 0-5 3-5 6l0 25c0 3 2 6 5 6l209 0c3 0 5-3 5-6z m-256 219c0-3-2-5-5-5l-26 0c-3 0-5 2-5 5l0 26c0 3 2 5 5 5l26 0c3 0 5-2 5-5z m0-110c0-3-2-5-5-5l-26 0c-3 0-5 2-5 5l0 26c0 3 2 5 5 5l26 0c3 0 5-2 5-5z m0-109c0-3-2-6-5-6l-26 0c-3 0-5 3-5 6l0 25c0 3 2 6 5 6l26 0c3 0 5-3 5-6z"/>
<glyph glyph-name="sloupec-pridat" unicode="&#57466;" d="M258 92l-93 0 0 255 109 0 0-186c3 2 7 2 10 2l9 0 0 184 108 0 0-91 9 0c3 0 7-1 11-2l0 112-403 0 0-293 264 0c-12 1-21 9-24 19z m-112 0l-108 0 0 255 108 0z m356 53l-81 0-2 0 0 83c0 5-4 10-9 10 0 0-1 0-1 0l-34 0c-5 0-10-5-10-10l0-83-81 0c0 0 0 0 0 0-5 0-10-4-10-10l0-34c0-5 5-10 10-10 0 0 0 0 0 0l81 0 0-83c0-5 5-9 10-9l34 0c1 0 2 0 3 0 0 0 1 0 1 0 1 1 1 1 2 1 0 1 1 1 1 1 1 1 1 1 1 2 1 0 1 1 2 2 0 1 0 2 0 3l0 83 2 0 81 0c1 0 2 0 2 1 1 0 2 0 2 0 1 0 1 1 2 1 0 1 1 1 1 1 1 1 1 1 1 2 1 0 1 1 1 1 1 1 1 3 1 4l0 34c0 6-4 10-10 10z"/>
<glyph glyph-name="sloupec-zrusit" unicode="&#57467;" d="M489 59l-59 59 59 59c4 3 4 10 0 14l-24 24c-1 1-2 1-3 2-1 0-1 0-1 0-1 0-2 1-3 1-1 0-2-1-3-1 0 0 0 0-1 0-1-1-2-1-3-2l-59-59-58 59c-1 1-2 1-3 2-1 0-1 0-2 0-1 0-1 0-2 0-1 0-1 0-2 0-1 0-1 0-2 0-1-1-2-1-3-2l-24-25c-4-3-4-10 0-14l58-58-57-57c-4-4-4-11 0-14l24-24c3-3 7-4 11-3 1 1 2 2 3 3l57 57 7-7 52-52c1-1 2-1 3-2 1 0 1 0 2 0 0 0 1 0 2 0 1 0 1 0 2 0 1 0 1 0 2 0 1 1 2 1 3 2l24 25c4 3 4 10 0 13z m-205 14l19 19-10 0 0 62-10 10c-11 10-11 28 0 39l10 10 0 134 108 0 0-156 20 19 0 156-403 0 0-293 266 0c0 0 0 0 0 0z m-138 19l-108 0 0 255 108 0z m128 0l-109 0 0 255 109 0z"/>
<glyph glyph-name="tabulka" unicode="&#57468;" d="M55 366l0-293 402 0 0 293z m383-92l-109 0 0 72 109 0z m-237-91l0 73 110 0 0-73z m110-18l0-73-110 0 0 73z m-110 109l0 72 110 0 0-72z m128-18l109 0 0-73-109 0z m-146 90l0-72-109 0 0 72z m-109-90l109 0 0-73-109 0z m0-91l109 0 0-73-109 0z m255-73l0 73 109 0 0-73z"/>
<glyph glyph-name="tabulka-pridat" unicode="&#57469;" d="M511 139c0 0 0 1-1 1 0 1 0 2-1 2 0 0-1 1-1 1-1 0-1 1-2 1-1 0-1 0-2 0 0 1-1 1-2 1l-83 0 0 83c0 5-4 10-10 10l-8 0-26 0c0 0-1-1-2-1 0 0-1 0-1 0-1 0-2-1-3-2 0 0 0 0-1 0 0-1-1-2-1-3 0 0-1 0-1 0 0-1 0-3 0-4l0-63 0-20-73 0-10 0c-4 0-7-2-9-5 0-2-1-3-1-5l0-34c0-2 1-3 1-5 2-3 5-5 9-5 0 0 0 0 0 0l83 0 0-81c0-1 0-3 0-4 1 0 1-1 1-1 1-1 1-2 1-2 1 0 1-1 2-1 0 0 1-1 2-1 0 0 1 0 1-1 1 0 2 0 2 0l35 0c5 0 9 4 9 10l0 81 83 0c1 0 2 0 2 0 1 1 1 1 2 1 1 0 1 1 2 1 0 0 1 1 1 1 1 1 1 1 2 2 0 0 0 1 0 1 1 1 1 3 1 4l0 34c0 1 0 3-1 4z m-255-47l-91 0 0 73 109 0 0-3c3 1 6 1 9 1l10 0 0 2 54 0 0 18-54 0 0 73 108 0 0 0 9 0c3 0 7-1 11-2l0 112-403 0 0-293 261 0c-11 2-20 9-23 19z m37 254l108 0 0-72-108 0z m-128 0l109 0 0-72-109 0z m0-90l109 0 0-73-109 0z m-19-164l-108 0 0 73 108 0z m0 91l-108 0 0 73 108 0z m0 91l-108 0 0 72 108 0z"/>
<glyph glyph-name="tabulka-zrusit" unicode="&#57470;" d="M392 182l1 1-2 0z m97-123l-59 59 59 59c4 3 4 10 0 14l-24 24c-1 1-2 1-3 2-1 0-1 0-1 0-1 0-2 1-3 1-1 0-2-1-3-1 0 0 0 0-1 0-1-1-2-1-3-2l-59-59-58 59c-1 1-2 1-3 2-1 0-1 0-2 0-1 0-1 0-2 0-1 0-1 0-2 0-1 0-1 0-2 0-1-1-2-1-3-2l-24-25c-1-1-2-2-2-3 0 0 0 0 0 0-1-2-1-3-1-4 0-2 1-5 3-7l12-11 46-47-57-57c-4-4-4-11 0-14l24-24c3-3 7-4 11-3 1 1 2 2 3 3l57 57 7-7 52-52c1-1 2-1 3-2 1 0 1 0 2 0 0 0 1 0 2 0 1 0 1 0 2 0 1 0 1 0 2 0 1 1 2 1 3 2l24 25c4 3 4 10 0 13z m-205 14l19 19-10 0 0 62-10 10c-11 10-11 28 0 39l10 10 0 43 108 0 0-65 20 19 0 156-403 0 0-293 266 0c0 0 0 0 0 0z m9 273l108 0 0-72-108 0z m-147-254l-108 0 0 73 108 0z m0 91l-108 0 0 73 108 0z m0 91l-108 0 0 72 108 0z m128-182l-109 0 0 73 109 0z m0 91l-109 0 0 73 109 0z m0 91l-109 0 0 72 109 0z"/>
<glyph glyph-name="zpet" unicode="&#57471;" d="M229 248c-36-9-67-29-90-57l-57 26 40-107 107 39-54 25c17 18 38 31 63 37 69 16 138-26 155-95l37 9c-22 89-112 144-201 123z"/>
<glyph glyph-name="razitko" unicode="&#42;" d="M100 91c0-14 11-18 25-18l262 0c14 0 25 4 25 18l0 1-312 0z m307 77c0 0-92 14-93 14-15 3-27 14-33 32-11 33-3 79 16 99 24 25 26 36 26 55 0 37-30 67-67 67-37 0-67-30-67-67 0-19 2-30 26-55 19-20 27-66 16-99-6-18-18-30-33-32-1 0-93-14-93-14-11-2-20-12-21-23l-2-19c0-4 1-8 4-11 3-4 7-5 12-5l316 0c5 0 9 1 12 5 3 3 4 7 4 11l-2 19c-1 11-10 21-21 23z m-151 187c-7 0-13 5-13 12 0 7 6 13 13 13 7 0 13-6 13-13 0-7-6-12-13-12z"/>
<glyph glyph-name="uradovna-dokument-dovnitr-pridat" unicode="&#57472;" d="M77 310c-2 2-4 1-4-2l0-34-67 0c-3 0-6-3-6-6l0-97c0-4 3-6 6-6l67 0 0-34c0-3 2-4 4-2l86 86c2 3 2 6 0 9z m362-53l0 64c0 13-14 26-26 26l-204 0c-13 0-26-13-26-26l0-224c0-12 13-24 26-24l91 0c22-28 56-46 93-46 66 0 119 54 119 120 0 49-30 92-73 110z m-220 54l183 0 0-37-183 0z m0-73l98 0c-12-10-22-23-29-37l-69 0z m0-110l0 37 57 0c-1-6-1-12-1-18 0-7 0-13 1-19z m174-73c-20 0-38 7-54 18-8 7-16 15-22 24 0 1-1 1-1 2-3 4-5 8-7 13-2 5-4 10-5 16 0 0 0 0 0 0-1 6-2 12-2 19 0 6 1 12 2 18 0 0 0 1 1 2 1 4 2 8 3 12 1 2 2 4 3 6 1 3 3 6 5 9 1 2 3 5 4 7 17 23 43 38 73 38 3 0 6-1 9-1 0 0 0 0 0 0 7-1 13-2 19-4 0 0 0 0 1 0 6-2 11-5 17-8 27-16 46-45 46-79 0-51-41-92-92-92z m13 135l-25 0 0-33-33 0 0-24 33 0 0-32 25 0 0 32 33 0 0 24-33 0z"/>
<glyph glyph-name="uradovna-dokument-info" unicode="&#57473;" d="M338 263l0 58c0 13-13 26-26 26l-204 0c-12 0-26-13-26-26l0-224c0-12 14-24 26-24l110 0c22-28 55-46 93-46 66 0 119 54 119 120 0 56-39 103-92 116z m-219 48l183 0 0-37-183 0z m0-73l116 0c-12-10-22-23-29-37l-87 0z m0-110l0 37 75 0c-1-6-1-12-1-18 0-7 0-13 1-19z m192-73c-20 0-39 7-54 18-9 7-16 15-22 24-1 1-1 1-1 2-3 4-5 8-7 13-2 5-4 10-5 16 0 0 0 0 0 0-1 6-2 12-2 19 0 6 1 12 2 18 0 0 0 1 0 2 1 4 3 8 4 12 1 2 2 4 3 6 1 3 3 6 4 9 2 2 3 5 5 7 17 23 43 38 73 38 5 0 10-1 15-2 4-1 8-2 12-3 37-12 64-46 64-87 0-51-41-92-91-92z m0 156c-10 0-15-5-15-14 0-9 5-13 15-13 5 0 9 1 11 3 3 3 4 6 4 10 0 9-5 14-15 14z m9-40l-18 0c-2 0-5-2-5-5l0-79c0-2 3-5 5-5l18 0c3 0 5 3 5 5l0 79c0 3-2 5-5 5z"/>
<glyph glyph-name="uradovna-dokument-upravit" unicode="&#57474;" d="M409 207l-28 28c-2 2-4 3-7 3-2 0-5-1-6-3l-7-7 41-41 7 7c3 4 3 9 0 13z m-60-31l-20 20-32-31-37-38-37-37c-3-2-6-8-7-16 0 0 0 0 0-1-1-7-1-21-1-24 0-1 0-1 0-1 0-2 0-3 1-4 0 0 0-1 0-1 1-1 2-1 4-1 0 0 1 0 1 0 0 0 18 0 26 2 8 1 13 3 16 6l37 37 12 12 45 45 12 12z m-212-48l0 37 122 0 36 36-158 0 0 37 183 0 0-12 2 2 0 0 19 19 7 7c3 3 6 5 9 6l0 61c0 13-14 26-26 26l-204 0c-13 0-26-13-26-26l0-224c0-12 13-24 26-24l62 0c0 2 0 4 0 5 2 14 7 25 15 32l18 18z m0 183l183 0 0-37-183 0z m188-238l6 0c12 0 26 12 26 24l0 8z"/>
<glyph glyph-name="uradovna-dokument-ven-pridat" unicode="&#57475;" d="M159 274l-68 0 0 34c0 3-1 4-4 2l-85-86c-3-3-3-6 0-9l85-86c3-2 4-1 4 2l0 34 68 0c3 0 6 2 6 6l0 97c0 4-3 6-6 6z m280-17l0 64c0 13-14 26-26 26l-204 0c-13 0-26-13-26-26l0-224c0-12 13-24 26-24l91 0c22-28 56-46 93-46 66 0 119 54 119 120 0 49-30 92-73 110z m-220 54l183 0 0-37-183 0z m0-73l98 0c-12-10-22-23-29-37l-69 0z m0-110l0 37 57 0c-1-6-1-12-1-18 0-7 0-13 1-19z m174-73c-20 0-38 7-54 18-8 7-16 15-22 24 0 1-1 1-1 2-3 4-5 8-7 13-2 5-4 10-5 16 0 0 0 0 0 0-1 6-2 12-2 19 0 6 1 12 2 18 0 0 0 1 1 2 1 4 2 8 3 12 1 2 2 4 3 6 1 3 3 6 5 9 1 2 3 5 4 7 17 23 43 38 73 38 3 0 6-1 9-1 0 0 0 0 0 0 7-1 13-2 19-4 0 0 0 0 1 0 6-2 11-5 17-8 27-16 46-45 46-79 0-51-41-92-92-92z m16 135l-24 0 0-33-34 0 0-24 34 0 0-32 24 0 0 32 34 0 0 24-34 0z"/>
<glyph glyph-name="uradovna-dokumet-nahled" unicode="&#57476;" d="M344 219c-5 1-10 2-15 2 0 0 0 0 0 0 0 0 0 0 0 0-5 0-10-1-15-2-26-4-47-20-59-42-1-1-2-3-2-4-6-11-10-25-10-39 0-2 0-4 1-6 0-3 0-7 1-10 0 0 0 0 0-1 1-3 1-6 2-8 0-2 1-3 1-4 1-2 2-4 3-6 1-3 3-7 5-10l5-8-46-47 0 0-10-9c-2-3-4-7-4-11 0-8 6-14 14-14 5 0 9 2 11 4l11 12 0-1 45 46 9-4c12-6 25-10 38-10 48 0 86 39 86 87 0 43-30 78-71 85z m-14-145c-1 0-2 0-3 0-23 1-42 14-52 33 0 0 0 0 0 0-2 3-3 7-4 10 0 0 0 0 0 0-1 4-2 7-2 11-1 3-1 5-1 8 0 10 3 20 7 29 4 7 9 13 15 18 0 1 1 1 2 2 2 1 3 2 5 4 2 1 5 3 8 4 1 0 2 1 3 1 2 1 5 2 7 2 2 1 3 1 4 1 3 1 7 1 11 1 3 0 6 0 10-1 2 0 5-1 7-2 26-7 45-31 45-59 0-35-28-62-62-62z m-103 11c-7 14-10 28-11 43l-88 0 0 37 92 0c4 13 10 25 18 36l-110 0 0 37 154 0c14 6 30 10 47 10 6 0 12-1 18-1l0 74c0 13-13 26-26 26l-204 0c-12 0-26-13-26-26l0-224c0-12 14-24 26-24l98 0z m-99 226l183 0 0-37-183 0z"/>
<glyph glyph-name="uradovna-razitko" unicode="&#57477;" d="M339 266c-58 0-105-41-117-95-3 4-6 9-8 15-9 26-3 63 13 79 19 19 21 28 21 44 0 29-24 53-54 53-30 0-54-24-54-53 0-16 2-25 21-44 16-16 22-53 13-79-5-15-14-24-26-26-1 0-75-11-75-11-8-2-16-10-16-18l-2-12c0-4 1-7 3-9 3-3 6-4 10-4l159 0c2-4 3-8 5-12l-162 0 0-1c0-11 9-20 20-20l155 0c22-28 56-46 94-46 65 0 118 54 118 120 0 65-53 119-118 119z m-145 32c-6 0-10 4-10 10 0 6 4 10 10 10 6 0 10-4 10-10 0-6-4-10-10-10z m145-243c-21 0-39 7-55 18-7 6-14 13-20 21-3 4-5 8-7 12-1 3-3 6-4 9-1 4-2 7-3 11-1 2-1 3-1 5-1 5-2 10-2 16 0 50 41 92 92 92 50 0 91-42 91-92 0-51-41-92-91-92z m0 156c-10 0-15-5-15-14 0-9 5-13 15-13 5 0 8 1 11 3 2 3 4 6 4 10 0 9-5 14-15 14z m8-40l-17 0c-3 0-5-2-5-5l0-79c0-2 2-5 5-5l17 0c3 0 5 3 5 5l0 79c0 3-2 5-5 5z"/>
<glyph glyph-name="uradovna-spis" unicode="&#57478;" d="M429 251c0 1-1 2-1 2-2 2-4 4-8 4l-285 0c-8 0-17-8-19-16l-33-156c-1-3-1-6 1-8 1-2 3-3 5-4 1 0 2 0 3 0l285 0c2 0 4 1 6 1 6 3 12 8 13 15l33 155c0 1 1 2 1 3 0 2 0 3-1 4z m-331-6c4 17 21 29 37 29l29 0 0 54c0 1 1 1 2 1l209 0c1 0 1 0 1-1l0-54 19 0 0 54c0 11-9 20-20 20l-209 0c-11 0-20-9-20-20l0-3c0 0 0 0 0 0-3 3-7 4-11 4l-39 0c-7 0-14-6-14-14l0-144z"/>
<glyph glyph-name="uradovna-spis-info" unicode="&#57479;" d="M108 274l29 0 0 54c0 1 1 1 2 1l207 0c1 0 1 0 1-1l0-54 19 0 0 54c0 11-9 20-20 20l-207 0c-11 0-20-9-20-20l0-3c0 0 0 0 0 0-3 3-7 4-12 4l-38 0c-8 0-14-6-14-14l0-144 16 74c4 17 20 29 37 29z m231-8c-17 0-32-3-46-9l-185 0c-8 0-17-8-19-16l-34-156c-1-3 0-6 1-8 2-2 4-3 6-4 1 0 1 0 2 0l181 0c22-28 56-46 94-46 65 0 118 54 118 120 0 65-53 119-118 119z m0-211c-21 0-39 7-55 18-5 4-9 8-13 13-2 1-3 3-4 5-2 3-4 5-6 8-2 3-3 6-5 9-1 2-1 3-2 5-2 4-3 9-4 14-1 1-1 2-1 3-1 6-2 11-2 17 0 31 16 59 41 76 14 10 32 16 51 16 5 0 10-1 15-2 2 0 3-1 5-1 4-1 7-2 11-3 3-2 6-3 9-4 30-15 51-46 51-82 0-51-41-92-91-92z m0 156c-10 0-15-5-15-14 0-9 5-13 15-13 5 0 8 1 11 3 2 3 4 6 4 10 0 9-5 14-15 14z m8-40l-17 0c-3 0-5-2-5-5l0-79c0-2 2-5 5-5l17 0c3 0 5 3 5 5l0 79c0 3-2 5-5 5z"/>
<glyph glyph-name="uradovna-spis-nahled" unicode="&#57480;" d="M117 274l29 0 0 54c0 1 1 1 2 1l207 0c1 0 2 0 2-1l0-54 18 0 0 54c0 11-9 20-20 20l-207 0c-11 0-20-9-20-20l0-3c0 0 0 0 0 0-3 3-7 4-12 4l-38 0c-8 0-14-6-14-14l0-144 16 74c4 17 20 29 37 29z m252-55c-4 1-9 1-14 2-1 0-2 0-2 0-24 0-45-10-61-26-16-15-25-37-25-61 0-16 4-31 12-45l5-8-45-47 0 0-10-9c-3-3-4-7-4-11 0-8 6-14 14-14 5 0 8 2 10 4l11 12 1-1 45 46 8-4c12-6 25-10 39-10 47 0 86 39 86 87 0 42-30 77-70 85z m-16-145c-2 0-5 0-8 0-4 1-7 2-11 3 0 0 0 0 0 0-3 1-7 2-10 4 0 0 0 0-1 1-2 1-5 3-7 5-1 0-2 1-2 1-2 2-4 4-6 6-1 1-2 2-3 3-1 2-3 4-4 6-1 1-2 3-2 4-1 2-2 4-3 6-1 2-1 4-2 6 0 2-1 3-1 5-1 4-2 8-2 12 0 34 28 62 62 62 5 0 10 0 14-1 0 0 1-1 1-1 4-1 8-2 12-4 21-10 35-31 35-56 0-35-27-62-62-62z m-103 11c-7 15-11 32-11 49 0 63 51 114 114 114 13 0 26-2 38-6l0 2c0 1 1 2 1 3 0 2-1 3-1 4 0 1-1 2-1 2-2 2-4 4-8 4l-265 0c-8 0-17-8-19-16l-34-156c0-3 0-6 2-8 1-2 3-3 5-4 1 0 2 0 2 0l165 0z"/>
<glyph glyph-name="uradovna-spis-pridat" unicode="&#57481;" d="M117 274l29 0 0 54c0 1 1 1 2 1l207 0c1 0 2 0 2-1l0-54 18 0 0 54c0 11-9 20-20 20l-207 0c-11 0-20-9-20-20l0-3c0 0 0 0 0 0-3 3-7 4-12 4l-38 0c-8 0-14-6-14-14l0-144 16 74c4 17 20 29 37 29z m231-8c-17 0-32-3-46-9l-185 0c-8 0-17-8-19-16l-34-156c0-3 0-6 2-8 1-2 3-3 5-4 1 0 2 0 2 0l182 0c21-28 55-46 93-46 65 0 118 54 118 120 0 65-53 119-118 119z m0-211c-21 0-39 7-54 18-5 4-10 8-14 13-2 1-3 3-4 5-2 3-4 5-6 8-2 3-3 6-5 9-1 2-1 3-2 5-2 4-3 9-4 14 0 1-1 2-1 3-1 6-2 11-2 17 0 50 41 91 92 91 5 0 10 0 15-1 2 0 3-1 5-1 4-1 7-2 11-3 3-2 6-3 9-4 30-15 51-46 51-82 0-51-41-92-91-92z m16 135l-25 0 0-33-33 0 0-24 33 0 0-32 25 0 0 32 33 0 0 24-33 0z"/>
<glyph glyph-name="postava-hvezdicka" unicode="&#57437;" d="M392 301c-10-16-30-27-53-27-23 0-42 11-52 27l-1 0 0 0c0 0-1 0-2 0l-27-27 0-2 12-70c1-7-1-14-7-18-3-2-7-4-11-4-3 0-5 1-8 2l-24 13c0-32 0-82 0-93 0-17 16-29 27-29 12 0 173 0 184 0 12 0 27 12 27 29 0 16 0 119 0 119 0 59-32 79-65 80z m-104 58l12-2c7-1 13-6 15-13 2-6 0-14-5-18l-1-2c8-5 18-9 29-9 33 0 59 26 59 59 0 32-27 58-59 58-32 0-58-26-58-58 0-5 0-10 2-14z m3-19l-6 0-71 11-38 74-37-74-84-12 61-58-15-82 75 38 47-24 28-14-12 70-2 11 0 1 53 50 8 8z"/>
<glyph glyph-name="postava-garant" unicode="&#57482;" d="M256 318c32 0 58 27 58 59 0 33-26 59-58 59-32 0-59-26-59-59 0-32 27-59 59-59z m-119-190l125 0c13 0 24 13 24 27 0 15-11 28-24 28l-125 0z m173 175c-10-15-30-26-53-26-23 0-43 11-52 26l-1 1c-34 0-67-20-67-82 0 0 0-8 0-21l22 0 0 45 115 0 0-47c17-5 30-23 30-44 0-24-19-45-42-45l-125 0c0-4 0-6 0-8 0-17 16-29 27-29 12 0 172 0 184 0 11 0 27 12 27 29 0 17 0 120 0 120 0 61-32 81-65 81z"/>
<glyph glyph-name="postava-hledat" unicode="&#57483;" d="M246 313c32 0 58 27 58 59 0 32-26 58-58 58-32 0-58-26-58-58 0-32 26-59 58-59z m83-62c-15 0-28-6-38-16-10-10-16-23-16-37 0-30 24-54 53-54 30 0 54 24 54 54 0 29-24 53-53 53z m19 25c-12 16-30 23-48 23-10-16-30-26-53-26-23 0-42 10-52 26l-1 0 0 0c-33 0-66-20-66-80 0 0 0-103 0-119 0-17 15-27 27-27 3 0 16 0 35 0 2-2 5-6 7-8 6-7 15-10 24-10 12 0 24 5 34 15l3 3c39 0 74 0 80 0 11 0 26 10 26 27 0 4 0 13 0 25 27 13 46 41 46 73 0 38-26 69-62 78z m-104-195c-7-7-15-11-23-11-5 0-10 2-13 5-5 5-7 12-5 19 1 6 5 13 10 18l45 45c3-4 5-8 8-12l-43-43c-3-3-5-7-6-11-1-2 0-4 1-5 1-1 2-1 3-1 3 0 8 1 13 6l43 44c4-4 8-6 12-9z m85 45c-40 0-72 32-72 72 0 19 7 37 21 50 13 14 31 21 51 21 39 0 71-32 71-71 0-40-32-72-71-72z"/>
<glyph glyph-name="postava-info" unicode="&#57484;" d="M228 334c32 0 58 26 58 58 0 32-26 58-58 58-33 0-59-26-59-58 0-32 26-58 59-58z m53-15c-9-16-29-26-52-26-23 0-43 10-53 26l0 0 0 0c-34 0-67-19-67-80 0 0 0-102 0-119 0-17 15-29 27-29 12 0 172 0 184 0 11 0 27 12 27 29 0 16 0 119 0 119 0 60-32 80-66 80z m205 120l-154 0c-4 0-7-3-7-7 0-4 3-7 7-7l154 0c4 0 7 3 7 7 0 4-3 7-7 7z m0-44l-110 0c-4 0-7-3-7-7 0-4 3-7 7-7l110 0c4 0 7 3 7 7 0 4-3 7-7 7z m0-43l-110 0c-4 0-7-4-7-7 0-4 3-7 7-7l110 0c4 0 7 3 7 7 0 3-3 7-7 7z m0-44l-110 0c-4 0-7-3-7-7 0-4 3-7 7-7l110 0c4 0 7 3 7 7 0 4-3 7-7 7z m0-44l-110 0c-4 0-7-3-7-7 0-4 3-7 7-7l110 0c4 0 7 3 7 7 0 4-3 7-7 7z"/>
<glyph glyph-name="postava-student" unicode="&#57485;" d="M310 303c-10-16-30-27-53-27-23 0-43 11-52 27l-1 0 0 0c-34 0-67-20-67-81 0 0 0-103 0-120 0-17 16-29 27-29 12 0 172 0 184 0 11 0 27 12 27 29 0 17 0 120 0 120 0 60-32 80-65 81z m29 108l0-31-8 0 0-24 29 0 0 24-8 0 0 33 19 4-113 20-118-20 118-20z m-78-29l-3 0-2 0-55 10 0-6c-2-6-3-6-3-13 0-33 25-59 57-59 32 0 58 26 58 59 0 7-1 7-3 13l0 5z"/>
<glyph glyph-name="postava-ucitel" unicode="&#57486;" d="M254 342c32 0 58 27 58 59 0 32-26 58-58 58-32 0-58-26-58-58 0-32 26-59 58-59z m161-134c-9 25-28 75-28 75-16 43-48 45-81 45-10-16-29-27-52-27-23 0-43 11-52 27-33 0-66-2-82-45 0 0-19-50-27-75-4-11 0-23 12-31 6-4 21-15 32-22l4-2 0-42 114-56 115 56 0 44 3 2c10 7 24 16 30 20 11 8 16 20 12 31z m-260-63c10-3 21 1 27 10l2 4c8 11 5 27-6 35l-23 16 0 17 94-38 0-115-94 46z m201 84l0 0 0-18-26-17c-11-8-14-24-7-35l3-4c7-10 19-13 30-9l0-26-94-46 0 115 94 40z"/>
<glyph glyph-name="lock" unicode="&#85;" d="M384 274l-18 0 0 14c0 60-49 109-110 109-61 0-110-49-110-109l0-14-18 0c-10 0-18-8-18-18l0-165c0-10 8-18 18-18l256 0c10 0 18 8 18 18l0 165c0 10-8 18-18 18z m-110-146l-36 0 0 73c0 10 8 18 18 18 10 0 18-8 18-18z m55 146l-146 0 0 14c0 40 33 72 73 72 40 0 73-32 73-72z"/>
<glyph glyph-name="unlock" unicode="&#89;" d="M384 274l-201 0 0 23c0 40 33 73 73 73 30 0 58-19 68-47l35 13c-16 42-58 70-103 70-61 0-110-49-110-109l0-23-18 0c-10 0-18-8-18-18l0-165c0-10 8-18 18-18l256 0c10 0 18 8 18 18l0 165c0 10-8 18-18 18z m-110-146l-36 0 0 73c0 10 8 18 18 18 10 0 18-8 18-18z"/>
<glyph glyph-name="penize" unicode="&#48;" d="M262 271c-2 0-4 0-6-1-3-2-5-6-6-11-1-5 0-10 3-16 6-9 17-14 24-10 8 4 9 16 3 26-4 7-11 12-18 12z m59 34c-2 0-4-1-6-2-3-2-5-5-6-10-1-5 0-11 3-16 6-10 17-15 24-10 3 1 6 5 6 10 1 5 0 11-3 16-4 7-11 12-18 12z m77-145c-29 0-52-24-52-52 0-29 23-52 52-52 28 0 51 23 51 52 0 28-23 52-51 52z m-159 0c-28 0-51-24-51-52 0-29 23-52 51-52 29 0 52 23 52 52 0 28-23 52-52 52z m-137 109l-34-19c-12-7-17-23-10-35l65-117c6-13 22-17 34-10l16 9c0 3-1 7-1 11 0 8 2 16 5 24z m287 131c-6 12-22 16-34 10l-240-134 71-128c12 16 31 27 53 27 17 0 33-6 45-17l160 89c12 7 17 23 10 35z m-147-205c-2-1-3-1-4-1-3 0-5 1-7 4l-21 38-3-3c-2-3-7-4-11-2-3 3-4 8-1 11l9 13c2 2 4 3 7 3 2 0 5-2 6-4l27-49c3-3 1-8-2-10z m43 25c-5-3-9-4-14-4-12 0-24 8-31 20-5 8-7 17-5 26 1 9 6 17 14 21 4 2 8 3 13 3 13 0 25-7 32-19 9-18 5-39-9-47z m72 54c-1-9-6-16-13-21-5-2-9-3-14-3-12 0-24 7-31 20-5 8-7 17-5 26 1 9 6 16 14 21 4 2 8 3 13 3 13 0 25-7 31-20 5-8 7-17 5-26z"/>
<glyph glyph-name="clock" unicode="&#122;" d="M256 359c67 0 121-55 121-121 0-67-54-121-121-121-67 0-121 54-121 121 0 66 54 121 121 121m0 43c-91 0-165-73-165-164 0-91 74-165 165-165 91 0 165 74 165 165 0 91-74 164-165 164z m84-103l-17 17c-3 3-9 3-12 0l-55-55-30 30c-3 4-9 4-12 0l-17-17c-2-1-3-4-3-6 0-2 1-4 3-6l53-53c2-2 4-3 6-3 0 0 0 0 0 0 3 0 5 1 6 3l78 78c4 3 4 8 0 12z"/>
<glyph glyph-name="kalendar" unicode="&#90;" d="M169 345c7 0 12 5 12 11l0 48c0 6-5 11-12 11-6 0-12-5-12-11l0-48c0-6 6-11 12-11z m174 0c6 0 12 5 12 11l0 48c0 6-6 11-12 11-7 0-12-5-12-11l0-48c0-6 5-11 12-11z m71 21l-41 0 0-8c0-17-14-30-30-30-17 0-30 13-30 30l0 8-114 0 0-8c0-17-13-30-30-30-16 0-30 13-30 30l0 8-41 0c-9 0-16-7-16-16l0-39 348 0 0 39c0 9-7 16-16 16z m-332-277c0-9 7-16 16-16l316 0c9 0 16 7 16 16l0 204-348 0z m130 163l101 0 0-21-59-121-36 0 59 114 0 1-65 0z"/>
<glyph glyph-name="nastaveni" unicode="&#108;" d="M382 234c0 10-1 19-3 27l42 24-39 66-42-24c-13 12-29 21-46 26l0 49-76 0 0-49c-17-5-33-14-46-26l-42 24-39-66 42-24c-2-8-3-17-3-27 0-9 1-18 3-27l-42-24 39-66 42 25c13-12 29-21 46-27l0-49 76 0 0 49c17 6 33 15 46 27l42-25 39 66-42 24c2 9 3 18 3 27z m-126-71c-40 0-73 32-73 71 0 40 33 72 73 72 40 0 73-32 73-72 0-39-33-71-73-71z"/>
<glyph glyph-name="folder" unicode="&#39;" d="M411 329l-205 0c-32 0-36 25-38 30-2 5-8 7-16 7l-51 0c-10 0-19-9-19-19l0-251c0-13 10-23 22-23l304 0c12 0 22 10 22 23l0 215c0 10-9 18-19 18z"/>
<glyph glyph-name="slozka-otevrena" unicode="&#57487;" d="M458 268c0 1-1 1-1 2-2 3-6 4-11 4l-310 0c-5 0-11-2-16-5-5-4-9-9-10-14l-45-167c-1-4-1-8 1-11 2-2 5-3 8-4 1 0 2 0 3 0l311 0c3 0 5 0 8 1 0 0 1 1 1 1 1 0 2 1 3 1 6 4 12 10 14 17l22 83 23 83c0 1 0 2 0 3 0 2 0 4-1 6z m-322 25l275 0 0 18c0 10-8 18-18 18l-205 0c-33 0-37 25-39 30-2 5-7 7-15 7l-51 0c-11 0-19-9-19-19l0-192 28 105c5 18 25 33 44 33z"/>
<glyph glyph-name="zoom-in" unicode="&#44;" d="M283 393c-71 0-128-58-128-129 0-25 7-48 18-67l-62-63 0 0c-6-6-10-15-10-26 0-19 15-35 35-35 10 0 19 4 25 11l1 0 64 64c17-9 36-13 57-13 71 0 128 57 128 129 0 71-57 129-128 129m1-208c-44 0-80 36-80 81 0 44 36 81 80 81 44 0 80-37 80-81 0-45-36-81-80-81m59 93l-47 0 0 47c0 2-2 4-5 4l-16 0c-3 0-4-2-4-4l0-47-47 0c-2 0-5-2-5-5l0-16c0-2 2-5 5-5 0 0 0 0 0 0l47 0 0-46c0-3 1-5 4-5l16 0c3 0 5 2 5 5l0 46 47 0c2 0 4 2 4 5l0 17c0 2-2 4-4 4z"/>
<glyph glyph-name="zoom-out" unicode="&#45;" d="M283 393c-71 0-128-58-128-129 0-25 7-48 18-67l-62-63 0 0c-6-6-10-15-10-26 0-19 15-35 35-35 10 0 19 4 25 11l1 0 64 64c17-9 36-13 57-13 71 0 128 57 128 129 0 71-57 129-128 129m1-208c-44 0-80 36-80 81 0 44 36 81 80 81 44 0 80-37 80-81 0-45-36-81-80-81m56 93l-110 0c-3 0-5-2-5-5l0-16c0-2 2-5 4-5 0 0 1 0 1 0l110 0c2 0 4 2 4 5l0 16c0 3-2 5-4 5z"/>
<glyph glyph-name="x" unicode="&#69;" d="M359 133l-71 71 1 0 70 71c4 4 4 10-1 14l-24 24c-4 5-10 4-14 0l-71-70-70 70c-4 4-10 4-14 0l-25-25c-4-3-4-10 0-13 0-1 0-1 0-1l71-70-71-71c-4-4-4-9 0-13l25-25c4-4 10-4 14 0l70 70 71-70c4-4 10-4 14 0l25 24c4 4 4 10 0 14z"/>
<glyph glyph-name="zivot" unicode="&#97;" d="M279 228c-2-9-4-19-5-28-1-5-2-10-3-15-3-18-24-26-38-15-9 7-19 15-28 22-1 1-2 2-4 3-4-6-7-11-11-16-6-11-15-15-27-14-16 0-32 0-48 0-11 1-21 9-23 19-2 11 3 22 14 26 7 4 14 3 22 2 8 0 16 0 24 0 3 0 5 1 6 3 7 10 13 20 20 29 7 10 21 12 30 5 7-4 12-9 18-13 1-2 3-3 5-4 2 6 3 12 4 18 7 39 14 79 21 119 1 9 3 18 4 27 3 12 12 19 25 19 11-1 20-9 22-22 4-37 9-74 14-111 4-32 8-64 11-95 4 3 7 6 10 9 17 14 44 9 55-10 12-21 2-46-21-54-3-1-5-3-6-6-9-17-18-34-27-51-5-8-11-13-21-14-10 0-17 4-21 12-2 5-3 10-4 15-4 32-8 64-12 97-2 14-3 29-5 43 0 0-1 0-1 0z"/>
<glyph glyph-name="sponka" unicode="&#98;" d="M178 73c-11 0-24 4-38 18-19 18-21 35-20 47 2 14 9 27 21 39l116 116c33 32 54 20 64 10 12-12 20-32-11-63l-107-107-20 21 106 107c17 16 13 20 11 22-1 1-6 5-22-11l-116-116c-5-5-11-13-12-21-1-8 2-15 11-24 10-10 17-9 20-8 7 1 14 5 22 13 10 10 129 129 138 138 11 11 18 22 21 33 4 15-1 29-15 43-15 15-39 31-76-6l-127-127c-6-6-15-6-21 0-6 6-6 15 0 21l127 127c40 39 82 41 118 6 28-28 28-55 23-72-5-16-14-31-29-46-9-9-128-128-138-137-12-13-26-21-39-22-2-1-4-1-7-1z"/>
<glyph glyph-name="isi-rozcestnik" unicode="&#99;" d="M200 155l84 0 0-155-84 0z m0 357l84 0 0-30-84 0z m119-183l-287 0 0 121 287 0 47-65z m114-147l-287 0 0 121 287 0 47-65z"/>
<glyph glyph-name="pripinacek" unicode="&#100;" d="M411 303l-109 98-109-124c-33 12-63 10-79-8l83-74-79-89-17-42 39 22 80 89 83-74c16 18 14 48-1 79z"/>
<glyph glyph-name="minus" unicode="&#81;" d="M374 238l-236 0c-5 0-10-4-10-10l0-35c0-5 4-10 10-10 0 0 0 0 0 0l236 0c5 0 10 4 10 10l0 35c0 6-5 10-10 10z"/>
<glyph glyph-name="marker" unicode="&#67;" d="M256 430c-71 0-128-58-128-128 0-71 128-229 128-229 0 0 128 158 128 229 0 70-58 128-128 128z m0-182c-35 0-64 29-64 64 0 35 29 64 64 64 35 0 64-29 64-64 0-35-29-64-64-64z"/>
<glyph glyph-name="pc" unicode="&#57364;" d="M227 129c2-6 8-10 14-10l30 0c6 0 12 4 14 10l2 17 100 0c10 0 15 11 15 16l0 170c0 5-5 15-15 15l-262 0c-8 0-15-7-15-15l0-170c0-9 7-16 15-16l100 0z m-81 182l220 0 0-128-220 0z m252-183l-94 0 0-1-1-2 0-2c-5-13-18-22-32-22l-30 0c-14 0-27 9-32 22l0 2-1 2 0 1-94 0c-12 0-23-12-23-27 0-16 11-28 23-28l284 0c12 0 23 12 23 28 0 15-11 27-23 27z"/>
</font>
</defs>
</svg>
